  0
SECTION
  2
HEADER
  9
$ACADVER
  1
AC1015
  9
$ACADMAINTVER
 70
               6
  9
$DWGCODEPAGE
  3
ANSI_932
  9
$INSBASE
 10
0.0
 20
0.0
 30
0.0
  9
$EXTMIN
 10
358.30479896238603
 20
100.0
 30
-14.816666666666665
  9
$EXTMAX
 10
2800.0
 20
1868.5862173002265
 30
14.816666666666665
  9
$LIMMIN
 10
0.0
 20
0.0
  9
$LIMMAX
 10
0.0
 20
0.0
  9
$ORTHOMODE
 70
               0
  9
$REGENMODE
 70
               1
  9
$FILLMODE
 70
               1
  9
$QTEXTMODE
 70
               0
  9
$MIRRTEXT
 70
               1
  9
$LTSCALE
 40
50.799999999999997
  9
$ATTMODE
 70
               1
  9
$TEXTSIZE
 40
0.2
  9
$TRACEWID
 40
1.0
  9
$TEXTSTYLE
  7
Standard
  9
$CLAYER
  8
一般
  9
$CELTYPE
  6
Continuous
  9
$CECOLOR
 62
             256
  9
$CELTSCALE
 40
1.0
  9
$DISPSILH
 70
               0
  9
$DIMSCALE
 40
1.0
  9
$DIMASZ
 40
5.0074462890624991
  9
$DIMEXO
 40
9.9999999999999982
  9
$DIMDLI
 40
10.16
  9
$DIMRND
 40
0.0
  9
$DIMDLE
 40
0.4999999999999999
  9
$DIMEXE
 40
4.9999999999999991
  9
$DIMTP
 40
0.0
  9
$DIMTM
 40
0.0
  9
$DIMTXT
 40
0.18
  9
$DIMCEN
 40
0.0
  9
$DIMTSZ
 40
0.0
  9
$DIMTOL
 70
               0
  9
$DIMLIM
 70
               0
  9
$DIMTIH
 70
               0
  9
$DIMTOH
 70
               0
  9
$DIMSE1
 70
               0
  9
$DIMSE2
 70
               0
  9
$DIMTAD
 70
               1
  9
$DIMZIN
 70
              11
  9
$DIMBLK
  1
_DOT
  9
$DIMASO
 70
               1
  9
$DIMSHO
 70
               1
  9
$DIMPOST
  1
<>
  9
$DIMAPOST
  1
[]
  9
$DIMALT
 70
               0
  9
$DIMALTD
 70
               3
  9
$DIMALTF
 40
0.0393700787401575
  9
$DIMLFAC
 40
1.0
  9
$DIMTOFL
 70
               1
  9
$DIMTVP
 40
0.0
  9
$DIMTIX
 70
               1
  9
$DIMSOXD
 70
               0
  9
$DIMSAH
 70
               0
  9
$DIMBLK1
  1

  9
$DIMBLK2
  1

  9
$DIMSTYLE
  2
T1
  9
$DIMCLRD
 70
               0
  9
$DIMCLRE
 70
               0
  9
$DIMCLRT
 70
               0
  9
$DIMTFAC
 40
0.8
  9
$DIMGAP
 40
0.4999999999999999
  9
$DIMJUST
 70
               0
  9
$DIMSD1
 70
               0
  9
$DIMSD2
 70
               0
  9
$DIMTOLJ
 70
               1
  9
$DIMTZIN
 70
              11
  9
$DIMALTZ
 70
              15
  9
$DIMALTTZ
 70
              15
  9
$DIMUPT
 70
               0
  9
$DIMDEC
 70
               1
  9
$DIMTDEC
 70
               1
  9
$DIMALTU
 70
               4
  9
$DIMALTTD
 70
               2
  9
$DIMTXSTY
  7
Standard
  9
$DIMAUNIT
 70
               0
  9
$DIMADEC
 70
               2
  9
$DIMALTRND
 40
0.0
  9
$DIMAZIN
 70
               0
  9
$DIMDSEP
 70
              46
  9
$DIMATFIT
 70
               0
  9
$DIMFRAC
 70
               2
  9
$DIMLDRBLK
  1

  9
$DIMLUNIT
 70
               2
  9
$DIMLWD
 70
              -2
  9
$DIMLWE
 70
              -2
  9
$DIMTMOVE
 70
               0
  9
$LUNITS
 70
               2
  9
$LUPREC
 70
               4
  9
$SKETCHINC
 40
0.1
  9
$FILLETRAD
 40
0.0
  9
$AUNITS
 70
               0
  9
$AUPREC
 70
               0
  9
$MENU
  1
acad
  9
$ELEVATION
 40
0.0
  9
$PELEVATION
 40
0.0
  9
$THICKNESS
 40
0.0
  9
$LIMCHECK
 70
               0
  9
$CHAMFERA
 40
0.0
  9
$CHAMFERB
 40
0.0
  9
$CHAMFERC
 40
0.0
  9
$CHAMFERD
 40
0.0
  9
$SKPOLY
 70
               0
  9
$TDCREATE
 40
2455066.716608796
  9
$TDUCREATE
 40
0.000000000
  9
$TDUPDATE
 40
2455066.716608796
  9
$TDUUPDATE
 40
0.000000000
  9
$TDINDWG
 40
0.0000000000
  9
$TDUSRTIMER
 40
0.0000000000
  9
$USRTIMER
 70
               1
  9
$ANGBASE
 50
0.0
  9
$ANGDIR
 70
               0
  9
$PDMODE
 70
               1
  9
$PDSIZE
 40
-2.0
  9
$PLINEWID
 40
0.0
  9
$SPLFRAME
 70
               0
  9
$SPLINETYPE
 70
               6
  9
$SPLINESEGS
 70
               8
  9
$HANDSEED
  5
146
  9
$SURFTAB1
 70
               6
  9
$SURFTAB2
 70
               6
  9
$SURFTYPE
 70
               6
  9
$SURFU
 70
               6
  9
$SURFV
 70
               6
  9
$UCSBASE
  2

  9
$UCSNAME
  2

  9
$UCSORG
 10
0.0
 20
0.0
 30
0.0
  9
$UCSXDIR
 10
1.0
 20
0.0
 30
0.0
  9
$UCSYDIR
 10
0.0
 20
1.0
 30
0.0
  9
$UCSORTHOREF
  2

  9
$UCSORTHOVIEW
 70
               0
  9
$UCSORGTOP
 10
0.0
 20
0.0
 30
0.0
  9
$UCSORGBOTTOM
 10
0.0
 20
0.0
 30
0.0
  9
$UCSORGLEFT
 10
0.0
 20
0.0
 30
0.0
  9
$UCSORGRIGHT
 10
0.0
 20
0.0
 30
0.0
  9
$UCSORGFRONT
 10
0.0
 20
0.0
 30
0.0
  9
$UCSORGBACK
 10
0.0
 20
0.0
 30
0.0
  9
$PUCSBASE
  2

  9
$PUCSNAME
  2

  9
$PUCSORG
 10
0.0
 20
0.0
 30
0.0
  9
$PUCSXDIR
 10
1.0
 20
0.0
 30
0.0
  9
$PUCSYDIR
 10
0.0
 20
1.0
 30
0.0
  9
$PUCSORTHOREF
  2

  9
$PUCSORTHOVIEW
 70
               0
  9
$PUCSORGTOP
 10
0.0
 20
0.0
 30
0.0
  9
$PUCSORGBOTTOM
 10
0.0
 20
0.0
 30
0.0
  9
$PUCSORGLEFT
 10
0.0
 20
0.0
 30
0.0
  9
$PUCSORGRIGHT
 10
0.0
 20
0.0
 30
0.0
  9
$PUCSORGFRONT
 10
0.0
 20
0.0
 30
0.0
  9
$PUCSORGBACK
 10
0.0
 20
0.0
 30
0.0
  9
$USERI1
 70
               0
  9
$USERI2
 70
               0
  9
$USERI3
 70
               0
  9
$USERI4
 70
               0
  9
$USERI5
 70
               0
  9
$USERR1
 40
0.0
  9
$USERR2
 40
0.0
  9
$USERR3
 40
0.0
  9
$USERR4
 40
0.0
  9
$USERR5
 40
0.0
  9
$WORLDVIEW
 70
               1
  9
$SHADEDGE
 70
               3
  9
$SHADEDIF
 70
              70
  9
$TILEMODE
 70
               1
  9
$MAXACTVP
 70
              64
  9
$PINSBASE
 10
0.0
 20
0.0
 30
0.0
  9
$PLIMCHECK
 70
               0
  9
$PEXTMIN
 10
1.0000000000000000E+20
 20
1.0000000000000000E+20
 30
1.0000000000000000E+20
  9
$PEXTMAX
 10
-1.0000000000000000E+20
 20
-1.0000000000000000E+20
 30
-1.0000000000000000E+20
  9
$PLIMMIN
 10
0.0
 20
0.0
  9
$PLIMMAX
 10
12.0
 20
9.0
  9
$UNITMODE
 70
               0
  9
$VISRETAIN
 70
               0
  9
$PLINEGEN
 70
               1
  9
$PSLTSCALE
 70
               0
  9
$TREEDEPTH
 70
            3020
  9
$CMLSTYLE
  2
Standard
  9
$CMLJUST
 70
               0
  9
$CMLSCALE
 40
1.0
  9
$PROXYGRAPHICS
 70
               0
  9
$MEASUREMENT
 70
               1
  9
$CELWEIGHT
370
               0
  9
$ENDCAPS
280
               0
  9
$JOINSTYLE
280
               0
  9
$LWDISPLAY
290
               1
  9
$INSUNITS
 70
               4
  9
$HYPERLINKBASE
  1

  9
$STYLESHEET
  1

  9
$XEDIT
290
               1
  9
$CEPSNTYPE
380
               0
  9
$PSTYLEMODE
290
               1
  9
$FINGERPRINTGUID
  2

  9
$VERSIONGUID
  2

  9
$EXTNAMES
290
               1
  9
$PSVPSCALE
 40
0.0
  0
ENDSEC
  0
SECTION
  2
CLASSES
  0
CLASS
  1
LWPOLYLINE
  2
AcDbPolyline
  3
AutoCAD 2000
 90
    32768
280
               0
281
               1
  0
CLASS
  1
IMAGE
  2
AcDbRasterImage
  3
ISM
 90
    32895
280
               0
281
               1
  0
CLASS
  1
OLE2FRAME
  2
AcDbOle2Frame
  3
AutoCAD 2000
 90
    32768
280
               0
281
               1
  0
CLASS
  1
HATCH
  2
AcDbHatch
  3
AutoCAD 2000
 90
        0
280
               0
281
               1
  0
CLASS
  1
DICTIONARYVAR
  2
AcDbDictionaryVar
  3
AutoCAD 2000
 90
    32768
280
               0
281
               0
  0
CLASS
  1
RASTERVARIABLES
  2
AcDbRasterVariables
  3
ISM
 90
    32768
280
               0
281
               0
  0
CLASS
  1
IMAGEDEF
  2
AcDbRasterImageDef
  3
ISM
 90
    32768
280
               0
281
               0
  0
CLASS
  1
IMAGEDEF_REACTOR
  2
AcDbRasterImageDefReactor
  3
ISM
 90
    32769
280
               0
281
               0
  0
CLASS
  1
IDBUFFER
  2
AcDbIdBuffer
  3
AutoCAD 2000
 90
    32768
280
               0
281
               0
  0
CLASS
  1
SPATIAL_FILTER
  2
AcDbSpatialFilter
  3
AutoCAD 2000
 90
    32768
280
               0
281
               0
  0
CLASS
  1
XRECORD
  2
AcDbXrecord
  3
AutoCAD 2000
 90
    32768
280
               0
281
               0
  0
CLASS
  1
SORTENTSTABLE
  2
AcDbSortentsTable
  3
AutoCAD 2000
 90
    32768
280
               0
281
               0
  0
CLASS
  1
LAYER_INDEX
  2
AcDbLayerIndex
  3
AutoCAD 2000
 90
    32768
280
               0
281
               0
  0
CLASS
  1
SPATIAL_INDEX
  2
AcDbSpatialIndex
  3
AutoCAD 2000
 90
    32768
280
               0
281
               0
  0
CLASS
  1
OBJECT_PTR
  2
CAseDLPNTableRecord
  3
"ASE-LPNTableRecord"
 90
    32769
280
               0
281
               0
  0
CLASS
  1
LAYOUT
  2
AcDbLayout
  3
AutoCAD 2000
 90
        0
280
               0
281
               0
  0
CLASS
  1
PLOTSETTINGS
  2
AcDbPlotSettings
  3
AutoCAD 2000
 90
    32768
280
               0
281
               0
  0
CLASS
  1
ACDBDICTIONARYWDFLT
  2
AcDbDictionaryWithDefault
  3
AutoCAD 2000
 90
        0
280
               0
281
               0
  0
CLASS
  1
ACDBPLACEHOLDER
  2
AcDbPlaceHolder
  3
AutoCAD 2000
 90
        0
280
               0
281
               0
  0
CLASS
  1
VBA_PROJECT
  2
AcDbVbaProject
  3
acadvba
 90
    32768
280
               0
281
               0
  0
CLASS
  1
WIPEOUT
  2
AcDbWipeout
  3
WipeOut|AutoCAD Express Tool|expresstools@autodesk.com
 90
      127
280
               0
281
               1
  0
CLASS
  1
WIPEOUTVARIABLES
  2
AcDbWipeoutVariables
  3
WipeOut|AutoCAD Express Tool|expresstools@autodesk.com
 90
        0
280
               0
281
               0
  0
CLASS
  1
RTEXT
  2
RText
  3
RText|AutoCAD Express Tool|expresstools@autodesk.com
 90
    32768
280
               0
281
               1
  0
CLASS
  1
ARCALIGNEDTEXT
  2
AcDbArcAlignedText
  3
ATEXT|AutoCAD Express Tool|expresstools@autodesk.com
 90
    32768
280
               0
281
               1
  0
ENDSEC
  0
SECTION
  2
TABLES
  0
TABLE
  2
VPORT
  5
7
100
AcDbSymbolTable
 70
               1
  0
VPORT
  5
15
100
AcDbSymbolTableRecord
100
AcDbViewportTableRecord
  2
*ACTIVE
 70
               0
 10
0.0
 20
0.0
 11
1.0
 21
1.0
 12
1579.152399481193
 22
984.29310865011325
 13
0.0
 23
0.0
 14
1.0
 24
1.0
 15
0.0
 25
0.0
 16
0.0
 26
0.0
 36
1.0
 17
0.0
 27
0.0
 37
0.0
 40
1768.5862173002265
 41
0.688564
 42
50.0
 43
0.0
 44
0.0
 50
0.0
 51
0.0
 71
               0
 72
            2000
 73
               1
 74
               1
 75
               0
 76
               0
 77
               0
 78
               0
281
               0
 65
               0
110
0.0
120
0.0
130
0.0
111
1.0
121
0.0
131
0.0
112
0.0
122
1.0
132
0.0
345
0
346
0
 79
               0
146
0.0
  0
ENDTAB
  0
TABLE
  2
LTYPE
  5
4
100
AcDbSymbolTable
 70
              13
  0
LTYPE
  5
11
100
AcDbSymbolTableRecord
100
AcDbLinetypeTableRecord
  2
ByBlock
 70
              64
  3

 72
              65
 73
               0
 40
0.0
  0
LTYPE
  5
12
100
AcDbSymbolTableRecord
100
AcDbLinetypeTableRecord
  2
ByLayer
 70
              64
  3

 72
              65
 73
               0
 40
0.0
  0
LTYPE
  5
13
100
AcDbSymbolTableRecord
100
AcDbLinetypeTableRecord
  2
Continuous
 70
              64
  3
Solid line
 72
              65
 73
               0
 40
0.0
  0
LTYPE
  5
37
100
AcDbSymbolTableRecord
100
AcDbLinetypeTableRecord
  2
STYLE_01
 70
               0
  3

 72
              65
 73
               2
 40
0.41664
 49
0.20828
 74
               0
 49
-0.20836
 74
               0
  0
LTYPE
  5
38
100
AcDbSymbolTableRecord
100
AcDbLinetypeTableRecord
  2
STYLE_02
 70
               0
  3

 72
              65
 73
               2
 40
0.6944250000000001
 49
0.48607
 74
               0
 49
-0.2083550000000001
 74
               0
  0
LTYPE
  5
39
100
AcDbSymbolTableRecord
100
AcDbLinetypeTableRecord
  2
STYLE_03
 70
               0
  3

 72
              65
 73
               2
 40
1.25
 49
1.0416400000000001
 74
               0
 49
-0.2083599999999999
 74
               0
  0
LTYPE
  5
3A
100
AcDbSymbolTableRecord
100
AcDbLinetypeTableRecord
  2
STYLE_04
 70
               0
  3

 72
              65
 73
               2
 40
1.5277099999999999
 49
1.3194249999999998
 74
               0
 49
-0.208285
 74
               0
  0
LTYPE
  5
3B
100
AcDbSymbolTableRecord
100
AcDbLinetypeTableRecord
  2
STYLE_05
 70
               0
  3

 72
              65
 73
               2
 40
0.20828
 49
0.069425
 74
               0
 49
-0.138855
 74
               0
  0
LTYPE
  5
3C
100
AcDbSymbolTableRecord
100
AcDbLinetypeTableRecord
  2
STYLE_06
 70
               0
  3

 72
              65
 73
               4
 40
1.0416400000000001
 49
0.625
 74
               0
 49
-0.20828
 74
               0
 49
0.06943
 74
               0
 49
-0.13893
 74
               0
  0
LTYPE
  5
3D
100
AcDbSymbolTableRecord
100
AcDbLinetypeTableRecord
  2
STYLE_07
 70
               0
  3

 72
              65
 73
               6
 40
1.875
 49
0.625
 74
               0
 49
-0.20828
 74
               0
 49
0.6250000000000001
 74
               0
 49
-0.2083599999999999
 74
               0
 49
0.06943
 74
               0
 49
-0.1389299999999999
 74
               0
  0
LTYPE
  5
3E
100
AcDbSymbolTableRecord
100
AcDbLinetypeTableRecord
  2
STYLE_08
 70
               0
  3

 72
              65
 73
               6
 40
1.25
 49
0.625
 74
               0
 49
-0.20828
 74
               0
 49
0.06943
 74
               0
 49
-0.13893
 74
               0
 49
0.0694299999999999
 74
               0
 49
-0.13893
 74
               0
  0
LTYPE
  5
3F
100
AcDbSymbolTableRecord
100
AcDbLinetypeTableRecord
  2
STYLE_09
 70
               0
  3

 72
              65
 73
               4
 40
5.0
 49
3.75
 74
               0
 49
-0.2777849999999998
 74
               0
 49
0.6944300000000003
 74
               0
 49
-0.2777849999999998
 74
               0
  0
LTYPE
  5
40
100
AcDbSymbolTableRecord
100
AcDbLinetypeTableRecord
  2
STYLE_10
 70
               0
  3

 72
              65
 73
               6
 40
5.9375
 49
3.75
 74
               0
 49
-0.2777849999999998
 74
               0
 49
0.6944300000000003
 74
               0
 49
-0.2777849999999998
 74
               0
 49
0.625
 74
               0
 49
-0.3125
 74
               0
  0
ENDTAB
  0
TABLE
  2
LAYER
  5
2
100
AcDbSymbolTable
 70
               4
  0
LAYER
  5
14
100
AcDbSymbolTableRecord
100
AcDbLayerTableRecord
  2
0
 70
               0
 62
               7
  6
Continuous
290
               1
370
              15
390
1D
  0
LAYER
  5
41
100
AcDbSymbolTableRecord
100
AcDbLayerTableRecord
  2
Defpoints
 70
               0
 62
               7
  6
Continuous
290
               0
370
              -3
390
1D
  0
LAYER
  5
42
100
AcDbSymbolTableRecord
100
AcDbLayerTableRecord
  2
一般
 70
               0
 62
               7
  6
Continuous
290
               1
370
               5
390
1D
  0
LAYER
  5
43
100
AcDbSymbolTableRecord
100
AcDbLayerTableRecord
  2
寸法
 70
               0
 62
               7
  6
Continuous
290
               1
370
               5
390
1D
  0
ENDTAB
  0
TABLE
  2
STYLE
  5
3
100
AcDbSymbolTable
 70
               4
  0
STYLE
  5
17
100
AcDbSymbolTableRecord
100
AcDbTextStyleTableRecord
  2
Standard
 70
               0
 40
0.0
 41
1.0
 50
0.0
 71
               0
 42
0.0
  3
txt
  4
BIGFONT.SHX
  0
STYLE
  5
34
100
AcDbSymbolTableRecord
100
AcDbTextStyleTableRecord
  2
Arial
 70
               0
 40
0.0
 41
1.0
 50
0.0
 71
               0
 42
0.0
  3

  4
Arial
1001
ACAD
1000
Arial
1071
        0
  0
STYLE
  5
35
100
AcDbSymbolTableRecord
100
AcDbTextStyleTableRecord
  2
Arial (bold)
 70
               0
 40
0.0
 41
1.0
 50
0.0
 71
               0
 42
0.0
  3

  4
Arial
1001
ACAD
1000
Arial
1071
 33554432
  0
STYLE
  5
36
100
AcDbSymbolTableRecord
100
AcDbTextStyleTableRecord
  2
ＭＳ ゴシック
 70
               0
 40
0.0
 41
1.0
 50
0.0
 71
               0
 42
0.0
  3

  4
ＭＳ ゴシック
1001
ACAD
1000
ＭＳ ゴシック
1071
        0
  0
ENDTAB
  0
TABLE
  2
VIEW
  5
5
100
AcDbSymbolTable
 70
               0
  0
ENDTAB
  0
TABLE
  2
UCS
  5
6
100
AcDbSymbolTable
 70
               0
  0
ENDTAB
  0
TABLE
  2
APPID
  5
8
100
AcDbSymbolTable
 70
               1
  0
APPID
  5
16
100
AcDbSymbolTableRecord
100
AcDbRegAppTableRecord
  2
ACAD
 70
               0
  0
ENDTAB
  0
TABLE
  2
DIMSTYLE
  5
9
100
AcDbSymbolTable
 70
               2
100
AcDbDimStyleTable
 71
               0
  0
DIMSTYLE
105
18
100
AcDbSymbolTableRecord
100
AcDbDimStyleTableRecord
  2
Standard
 70
               0
  3

  4

 40
1.0
 41
0.18
 42
0.0625
 43
0.38
 44
0.18
 45
0.0
 46
0.0
 47
0.0
 48
0.0
 71
               0
 72
               0
 73
               1
 74
               1
 75
               0
 76
               0
 77
               0
 78
               0
 79
               0
140
0.18
141
0.09
142
0.0
143
25.399999999999999
144
1.0
145
0.0
146
1.0
147
0.09
148
0.0
170
               0
171
               2
172
               0
173
               0
174
               0
175
               0
176
               0
177
               0
178
               0
179
               0
271
               4
272
               4
273
               2
274
               2
275
               0
276
               0
277
               2
278
              46
279
               0
280
               0
281
               0
282
               0
283
               1
284
               0
285
               0
286
               0
288
               0
340
17
341
0
342
0
343
0
344
0
371
              -2
372
              -2
  0
DIMSTYLE
105
53
100
AcDbSymbolTableRecord
100
AcDbDimStyleTableRecord
  2
T1
 70
               0
  3
<>
  4
[]
 40
1.0
 41
5.0074462890624991
 42
9.9999999999999982
 43
10.16
 44
4.9999999999999991
 45
0.0
 46
0.4999999999999999
 47
0.0
 48
0.0
 71
               0
 72
               0
 73
               0
 74
               0
 75
               0
 76
               0
 77
               1
 78
              11
 79
               0
140
0.18
141
0.0
142
0.0
143
0.0393700787401575
144
1.0
145
0.0
146
0.8
147
0.4999999999999999
148
0.0
170
               0
171
               3
172
               1
173
               0
174
               1
175
               0
176
               0
177
               0
178
               0
179
               2
271
               1
272
               1
273
               4
274
               2
275
               0
276
               2
277
               2
278
              46
279
               0
280
               0
281
               0
282
               0
283
               1
284
              11
285
              15
286
              15
288
               0
340
17
341
4C
342
44
343
0
344
0
371
              -2
372
              -2
  0
ENDTAB
  0
TABLE
  2
BLOCK_RECORD
  5
1
100
AcDbSymbolTable
 70
              18
  0
BLOCK_RECORD
  5
A
100
AcDbSymbolTableRecord
100
AcDbBlockTableRecord
  2
*MODEL_SPACE
340
20
  0
BLOCK_RECORD
  5
B
100
AcDbSymbolTableRecord
100
AcDbBlockTableRecord
  2
*PAPER_SPACE
340
21
  0
BLOCK_RECORD
  5
44
100
AcDbSymbolTableRecord
100
AcDbBlockTableRecord
  2
_DOT
340
0
  0
BLOCK_RECORD
  5
4C
100
AcDbSymbolTableRecord
100
AcDbBlockTableRecord
  2
VW_EMPTYARROW
340
0
  0
BLOCK_RECORD
  5
24
100
AcDbSymbolTableRecord
100
AcDbBlockTableRecord
  2
グループ
340
0
102
{BLKREFS
331
61
102
}
  0
BLOCK_RECORD
  5
25
100
AcDbSymbolTableRecord
100
AcDbBlockTableRecord
  2
scal 1_10
340
0
102
{BLKREFS
331
129
102
}
  0
BLOCK_RECORD
  5
26
100
AcDbSymbolTableRecord
100
AcDbBlockTableRecord
  2
グループ-1
340
0
102
{BLKREFS
331
8B
102
}
  0
BLOCK_RECORD
  5
27
100
AcDbSymbolTableRecord
100
AcDbBlockTableRecord
  2
グループ-2
340
0
102
{BLKREFS
331
7D
102
}
  0
BLOCK_RECORD
  5
28
100
AcDbSymbolTableRecord
100
AcDbBlockTableRecord
  2
グループ-3
340
0
102
{BLKREFS
331
8D
102
}
  0
BLOCK_RECORD
  5
29
100
AcDbSymbolTableRecord
100
AcDbBlockTableRecord
  2
グループ-4
340
0
102
{BLKREFS
331
12A
102
}
  0
BLOCK_RECORD
  5
2A
100
AcDbSymbolTableRecord
100
AcDbBlockTableRecord
  2
*D8
340
0
  0
BLOCK_RECORD
  5
2B
100
AcDbSymbolTableRecord
100
AcDbBlockTableRecord
  2
*D9
340
0
  0
BLOCK_RECORD
  5
2C
100
AcDbSymbolTableRecord
100
AcDbBlockTableRecord
  2
*D10
340
0
  0
BLOCK_RECORD
  5
2D
100
AcDbSymbolTableRecord
100
AcDbBlockTableRecord
  2
*D11
340
0
  0
BLOCK_RECORD
  5
2E
100
AcDbSymbolTableRecord
100
AcDbBlockTableRecord
  2
グループ-5
340
0
102
{BLKREFS
331
ED
102
}
  0
BLOCK_RECORD
  5
2F
100
AcDbSymbolTableRecord
100
AcDbBlockTableRecord
  2
グループ-6
340
0
102
{BLKREFS
331
130
102
}
  0
BLOCK_RECORD
  5
30
100
AcDbSymbolTableRecord
100
AcDbBlockTableRecord
  2
グループ-7
340
0
102
{BLKREFS
331
F9
102
}
  0
BLOCK_RECORD
  5
31
100
AcDbSymbolTableRecord
100
AcDbBlockTableRecord
  2
グループ-8
340
0
102
{BLKREFS
331
136
102
}
  0
BLOCK_RECORD
  5
32
100
AcDbSymbolTableRecord
100
AcDbBlockTableRecord
  2
グループ-9
340
0
102
{BLKREFS
331
108
102
}
  0
BLOCK_RECORD
  5
33
100
AcDbSymbolTableRecord
100
AcDbBlockTableRecord
  2
グループ-10
340
0
102
{BLKREFS
331
137
102
}
  0
ENDTAB
  0
ENDSEC
  0
SECTION
  2
BLOCKS
  0
BLOCK
  5
D
100
AcDbEntity
  8
0
100
AcDbBlockBegin
  2
*MODEL_SPACE
 70
               0
 10
0.0
 20
0.0
 30
0.0
  3
*MODEL_SPACE
  1

  0
ENDBLK
  5
E
100
AcDbEntity
  8
0
100
AcDbBlockEnd
  0
BLOCK
  5
F
100
AcDbEntity
 67
               1
  8
0
100
AcDbBlockBegin
  2
*PAPER_SPACE
 70
               0
 10
0.0
 20
0.0
 30
0.0
  3
*PAPER_SPACE
  1

  0
ENDBLK
  5
10
100
AcDbEntity
 67
               1
  8
0
100
AcDbBlockEnd
  0
BLOCK
  5
45
100
AcDbEntity
  8
0
100
AcDbBlockBegin
  2
_DOT
 70
               0
 10
0.0
 20
0.0
 30
0.0
  3
_DOT
  1

  0
POLYLINE
  5
46
100
AcDbEntity
  8
0
370
              -2
  6
ByBlock
 62
               0
100
AcDb2dPolyline
 66
               1
 10
0.0
 20
0.0
 30
0.0
 70
               1
 40
0.5
 41
0.5
  0
VERTEX
  5
47
100
AcDbEntity
  8
0
370
              -2
  6
ByBlock
 62
               0
100
AcDbVertex
100
AcDb2dVertex
 10
-0.25
 20
0.0
 30
0.0
 42
1.0
  0
VERTEX
  5
48
100
AcDbEntity
  8
0
370
              -2
  6
ByBlock
 62
               0
100
AcDbVertex
100
AcDb2dVertex
 10
0.25
 20
0.0
 30
0.0
 42
1.0
  0
SEQEND
  5
49
100
AcDbEntity
  8
0
  0
LINE
  5
4A
100
AcDbEntity
  8
0
370
              -2
  6
ByBlock
 62
               0
100
AcDbLine
 10
-0.5
 20
0.0
 30
0.0
 11
-1.0
 21
0.0
 31
0.0
  0
ENDBLK
  5
4B
100
AcDbEntity
  8
0
100
AcDbBlockEnd
  0
BLOCK
  5
4D
100
AcDbEntity
  8
0
370
              -2
  6
ByBlock
 62
               0
100
AcDbBlockBegin
  2
VW_EMPTYARROW
 70
               0
 10
0.0
 20
0.0
 30
0.0
  3
VW_EMPTYARROW
  1

  0
LINE
  5
4E
100
AcDbEntity
  8
0
370
              -2
  6
ByBlock
 62
               0
100
AcDbLine
 10
0.0
 20
0.0
 30
0.0
 11
-1.0
 21
0.0
 31
0.0
  0
LINE
  5
4F
100
AcDbEntity
  8
0
370
              -2
  6
ByBlock
 62
               0
100
AcDbLine
 10
0.0
 20
0.0
 30
0.0
 11
-0.9921874999999999
 21
-0.1749494261716802
 31
0.0
  0
LINE
  5
50
100
AcDbEntity
  8
0
370
              -2
  6
ByBlock
 62
               0
100
AcDbLine
 10
0.0
 20
0.0
 30
0.0
 11
-0.9921874999999999
 21
0.17494942617168
 31
0.0
  0
LINE
  5
51
100
AcDbEntity
  8
0
370
              -2
  6
ByBlock
 62
               0
100
AcDbLine
 10
-0.9921874999999999
 20
-0.1749494261716802
 30
0.0
 11
-0.9921874999999999
 21
0.17494942617168
 31
0.0
  0
ENDBLK
  5
52
100
AcDbEntity
  8
0
100
AcDbBlockEnd
  0
BLOCK
  5
54
100
AcDbEntity
  8
一般
100
AcDbBlockBegin
  2
グループ
 70
               0
 10
0.0
 20
0.0
 30
0.0
  3
グループ
  1

  0
MTEXT
  5
55
100
AcDbEntity
  8
一般
 62
               9
100
AcDbMText
 10
-126.88010037244908
 20
13.945972804042416
 30
0.0
 40
16.288411458333332
 41
30.0
 71
               1
 72
               1
  1
0
  7
ＭＳ ゴシック
 73
               1
 44
0.7828267384257843
  0
MTEXT
  5
56
100
AcDbEntity
  8
一般
 62
               9
100
AcDbMText
 10
-38.228066425365569
 20
12.639448705947533
 30
0.0
 40
16.288411458333332
 41
40.0
 71
               1
 72
               1
  1
100
  7
ＭＳ ゴシック
 73
               1
 44
0.7828267384257843
  0
LINE
  5
57
100
AcDbEntity
  8
一般
370
              15
  6
Continuous
 62
               8
100
AcDbLine
 10
-23.119899627550922
 20
-5.8608946790423033
 30
0.0
 11
-23.119899627550922
 21
-15.860894679042303
 31
0.0
  0
MTEXT
  5
58
100
AcDbEntity
  8
一般
 62
               9
100
AcDbMText
 10
51.771933574634431
 20
12.639448705947533
 30
0.0
 40
16.288411458333332
 41
75.108166797814647
 71
               1
 72
               1
  1
200mm
  7
ＭＳ ゴシック
 73
               1
 44
0.7828267384257843
  0
POLYLINE
  5
59
100
AcDbEntity
  8
一般
370
              15
  6
Continuous
 62
               9
100
AcDb2dPolyline
 66
               1
 10
0.0
 20
0.0
 30
0.0
 75
               5
  0
VERTEX
  5
5A
100
AcDbEntity
  8
一般
370
              15
  6
Continuous
 62
               9
100
AcDbVertex
100
AcDb2dVertex
 10
-123.11989962755092
 20
-5.8608946790423033
 30
0.0
  0
VERTEX
  5
5B
100
AcDbEntity
  8
一般
370
              15
  6
Continuous
 62
               9
100
AcDbVertex
100
AcDb2dVertex
 10
-123.11989962755092
 20
-15.860894679042303
 30
0.0
  0
VERTEX
  5
5C
100
AcDbEntity
  8
一般
370
              15
  6
Continuous
 62
               9
100
AcDbVertex
100
AcDb2dVertex
 10
76.880100372449078
 20
-15.860894679042303
 30
0.0
  0
VERTEX
  5
5D
100
AcDbEntity
  8
一般
370
              15
  6
Continuous
 62
               9
100
AcDbVertex
100
AcDb2dVertex
 10
76.880100372449078
 20
-5.8608946790423033
 30
0.0
  0
SEQEND
  5
5E
100
AcDbEntity
  8
一般
370
              15
  6
Continuous
 62
               9
  0
ENDBLK
  5
5F
100
AcDbEntity
  8
一般
100
AcDbBlockEnd
  0
BLOCK
  5
60
100
AcDbEntity
  8
一般
100
AcDbBlockBegin
  2
scal 1_10
 70
               0
 10
0.0
 20
0.0
 30
0.0
  3
scal 1_10
  1

  0
INSERT
  5
61
100
AcDbEntity
  8
一般
 62
               7
100
AcDbBlockReference
  2
グループ
 10
0.0
 20
0.0
 30
0.0
  0
ENDBLK
  5
62
100
AcDbEntity
  8
一般
100
AcDbBlockEnd
  0
BLOCK
  5
63
100
AcDbEntity
  8
一般
100
AcDbBlockBegin
  2
グループ-1
 70
               0
 10
0.0
 20
0.0
 30
0.0
  3
グループ-1
  1

  0
LINE
  5
64
100
AcDbEntity
  8
一般
370
               5
  6
Continuous
 62
               7
100
AcDbLine
 10
-944.69520103761329
 20
-385.0
 30
0.0
 11
-898.69520103761329
 21
-385.0
 31
0.0
  0
LINE
  5
65
100
AcDbEntity
  8
寸法
370
              15
  6
Continuous
 62
               7
100
AcDbLine
 10
-898.22259806488159
 20
-385.0
 30
0.0
 11
-898.22259806488159
 21
-400.0
 31
0.0
  0
LINE
  5
66
100
AcDbEntity
  8
寸法
370
              15
  6
Continuous
 62
               7
100
AcDbLine
 10
-898.22259806488159
 20
-410.0
 30
0.0
 11
-898.22259806488159
 21
-420.0
 31
0.0
  0
LINE
  5
67
100
AcDbEntity
  8
寸法
370
              15
  6
Continuous
 62
               7
100
AcDbLine
 10
-944.94520103761329
 20
-385.0
 30
0.0
 11
-944.94520103761329
 21
-400.0
 31
0.0
  0
LINE
  5
68
100
AcDbEntity
  8
寸法
370
              15
  6
Continuous
 62
               7
100
AcDbLine
 10
-944.94520103761329
 20
-410.0
 30
0.0
 11
-944.94520103761329
 21
-420.0
 31
0.0
  0
LINE
  5
69
100
AcDbEntity
  8
一般
370
               5
  6
Continuous
 62
               7
100
AcDbLine
 10
-898.69520103761329
 20
-410.0
 30
0.0
 11
-944.69520103761329
 21
-410.0
 31
0.0
  0
LINE
  5
6A
100
AcDbEntity
  8
一般
370
               5
  6
Continuous
 62
               7
100
AcDbLine
 10
-898.69520103761329
 20
-400.0
 30
0.0
 11
-944.69520103761329
 21
-400.0
 31
0.0
  0
LINE
  5
6B
100
AcDbEntity
  8
一般
370
               5
  6
Continuous
 62
               7
100
AcDbLine
 10
-898.69520103761329
 20
-385.0
 30
0.0
 11
-944.69520103761329
 21
-385.0
 31
0.0
  0
LINE
  5
6C
100
AcDbEntity
  8
一般
370
              15
  6
Continuous
 62
               7
100
AcDbLine
 10
-944.94520103761329
 20
-385.0
 30
0.0
 11
-957.33266808262078
 21
-375.0
 31
0.0
  0
LINE
  5
6D
100
AcDbEntity
  8
一般
370
              15
  6
Continuous
 62
               7
100
AcDbLine
 10
-898.22259806488159
 20
-385.0
 30
0.0
 11
-885.83513101987432
 21
-375.0
 31
0.0
  0
LINE
  5
6E
100
AcDbEntity
  8
一般
370
              15
  6
Continuous
 62
               7
100
AcDbLine
 10
-898.22259806488159
 20
-400.0
 30
0.0
 11
-887.22259806488159
 21
-400.0
 31
0.0
  0
LINE
  5
6F
100
AcDbEntity
  8
一般
370
              15
  6
Continuous
 62
               7
100
AcDbLine
 10
-898.22259806488159
 20
-410.0
 30
0.0
 11
-887.22259806488159
 21
-410.0
 31
0.0
  0
LINE
  5
70
100
AcDbEntity
  8
一般
370
              15
  6
Continuous
 62
               7
100
AcDbLine
 10
-887.22259806488159
 20
-400.0
 30
0.0
 11
-887.22259806488159
 21
-410.0
 31
0.0
  0
LINE
  5
71
100
AcDbEntity
  8
一般
370
              15
  6
Continuous
 62
               7
100
AcDbLine
 10
-944.94520103761329
 20
-400.0
 30
0.0
 11
-955.94520103761329
 21
-400.0
 31
0.0
  0
LINE
  5
72
100
AcDbEntity
  8
一般
370
              15
  6
Continuous
 62
               7
100
AcDbLine
 10
-944.94520103761329
 20
-410.0
 30
0.0
 11
-955.94520103761329
 21
-410.0
 31
0.0
  0
LINE
  5
73
100
AcDbEntity
  8
一般
370
              15
  6
Continuous
 62
               7
100
AcDbLine
 10
-955.94520103761329
 20
-400.0
 30
0.0
 11
-955.94520103761329
 21
-410.0
 31
0.0
  0
LINE
  5
74
100
AcDbEntity
  8
一般
370
              15
  6
Continuous
 62
               7
100
AcDbLine
 10
-960.57020103761329
 20
-420.0
 30
0.0
 11
-880.57020103761329
 21
-420.0
 31
0.0
  0
ENDBLK
  5
75
100
AcDbEntity
  8
一般
100
AcDbBlockEnd
  0
BLOCK
  5
76
100
AcDbEntity
  8
一般
100
AcDbBlockBegin
  2
グループ-2
 70
               0
 10
0.0
 20
0.0
 30
0.0
  3
グループ-2
  1

  0
WIPEOUT
  5
77
100
AcDbEntity
  8
寸法
370
              15
  6
Continuous
 62
               7
 92
        0
100
AcDbWipeout
 90
        0
 10
-936.69520103761329
 20
-314.74990027571846
 30
0.0
 11
30.0
 21
0.0
 31
0.0
 12
0.0
 22
30.0
 32
0.0
 13
1.0
 23
1.0
340
0
 70
               7
280
               1
281
              50
282
              50
283
               0
360
0
 71
               2
 91
        9
 14
0.0
 24
0.5
 14
-0.3535533905932728
 24
0.3559951410355817
 14
-0.5
 24
0.0083366574760551
 14
-0.3535533905932728
 24
-0.3393218260834715
 14
0.0
 24
-0.4833266850478898
 14
0.3535533905932728
 24
-0.3393218260834715
 14
0.5
 24
0.0083366574760551
 14
0.3535533905932728
 24
0.3559951410355817
 14
0.0
 24
0.5
  0
SPLINE
  5
78
100
AcDbEntity
  8
寸法
370
              15
  6
Continuous
 62
               7
100
AcDbSpline
210
0.0
220
0.0
230
1.0
 70
               9
 71
               2
 72
              17
 73
              14
 74
               0
 42
0.000001
 43
0.000001
 40
0.0
 40
0.0
 40
0.0
 40
1.0
 40
2.0
 40
3.0
 40
4.0
 40
5.0
 40
6.0
 40
7.0
 40
8.0
 40
9.0
 40
10.0
 40
11.0
 40
12.0
 40
12.0
 40
12.0
 10
-929.19520103761329
 20
-287.22621165794089
 30
0.0
 10
-925.71443892408013
 20
-285.25009972428177
 30
0.0
 10
-917.67596315114645
 20
-285.25009972428177
 30
0.0
 10
-910.71443892408013
 20
-289.20232359160008
 30
0.0
 10
-906.69520103761329
 20
-296.0477761326818
 30
0.0
 10
-906.69520103761329
 20
-303.95222386731842
 30
0.0
 10
-910.71443892408013
 20
-310.79767640840015
 30
0.0
 10
-917.67596315114645
 20
-314.74990027571846
 30
0.0
 10
-925.71443892408013
 20
-314.74990027571846
 30
0.0
 10
-932.67596315114645
 20
-310.79767640840015
 30
0.0
 10
-936.69520103761329
 20
-303.95222386731842
 30
0.0
 10
-936.69520103761329
 20
-296.0477761326818
 30
0.0
 10
-932.67596315114645
 20
-289.20232359160008
 30
0.0
 10
-929.19520103761329
 20
-287.22621165794089
 30
0.0
  0
WIPEOUT
  5
79
100
AcDbEntity
  8
寸法
370
              15
  6
Continuous
 62
               7
 92
        0
100
AcDbWipeout
 90
        0
 10
-931.69520103761329
 20
-309.85944856052345
 30
0.0
 11
20.0
 21
0.0
 31
0.0
 12
0.0
 22
20.0
 32
0.0
 13
1.0
 23
1.0
340
0
 70
               7
280
               1
281
              50
282
              50
283
               0
360
0
 71
               2
 91
        9
 14
0.0
 24
0.5
 14
-0.353553390593271
 24
0.3556117187691313
 14
-0.5
 24
0.0070275719738276
 14
-0.353553390593271
 24
-0.3415565748214761
 14
0.0
 24
-0.4859448560523447
 14
0.353553390593271
 24
-0.3415565748214761
 14
0.5
 24
0.0070275719738276
 14
0.353553390593271
 24
0.3556117187691313
 14
0.0
 24
0.5
  0
SPLINE
  5
7A
100
AcDbEntity
  8
寸法
370
              15
  6
Continuous
 62
               7
100
AcDbSpline
210
0.0
220
0.0
230
1.0
 70
               9
 71
               2
 72
              17
 73
              14
 74
               0
 42
0.000001
 43
0.000001
 40
0.0
 40
0.0
 40
0.0
 40
1.0
 40
2.0
 40
3.0
 40
4.0
 40
5.0
 40
6.0
 40
7.0
 40
8.0
 40
9.0
 40
10.0
 40
11.0
 40
12.0
 40
12.0
 40
12.0
 10
-926.69520103761329
 20
-291.46146707928074
 30
0.0
 10
-924.37469296192455
 20
-290.14055143947655
 30
0.0
 10
-919.01570911330202
 20
-290.14055143947655
 30
0.0
 10
-914.37469296192455
 20
-292.78238271908498
 30
0.0
 10
-911.69520103761329
 20
-297.35816872039157
 30
0.0
 10
-911.69520103761329
 20
-302.64183127960843
 30
0.0
 10
-914.37469296192455
 20
-307.21761728091502
 30
0.0
 10
-919.01570911330202
 20
-309.85944856052345
 30
0.0
 10
-924.37469296192455
 20
-309.85944856052345
 30
0.0
 10
-929.01570911330202
 20
-307.21761728091502
 30
0.0
 10
-931.69520103761329
 20
-302.64183127960843
 30
0.0
 10
-931.69520103761329
 20
-297.35816872039157
 30
0.0
 10
-929.01570911330202
 20
-292.78238271908498
 30
0.0
 10
-926.69520103761329
 20
-291.46146707928074
 30
0.0
  0
ENDBLK
  5
7B
100
AcDbEntity
  8
一般
100
AcDbBlockEnd
  0
BLOCK
  5
7C
100
AcDbEntity
  8
一般
100
AcDbBlockBegin
  2
グループ-3
 70
               0
 10
0.0
 20
0.0
 30
0.0
  3
グループ-3
  1

  0
INSERT
  5
7D
100
AcDbEntity
  8
一般
 62
               7
100
AcDbBlockReference
  2
グループ-2
 10
0.0
 20
0.0
 30
0.0
  0
ENDBLK
  5
7E
100
AcDbEntity
  8
一般
100
AcDbBlockEnd
  0
BLOCK
  5
7F
100
AcDbEntity
  8
一般
100
AcDbBlockBegin
  2
グループ-4
 70
               0
 10
0.0
 20
0.0
 30
0.0
  3
グループ-4
  1

  0
WIPEOUT
  5
80
100
AcDbEntity
  8
一般
370
              15
  6
Continuous
 62
               7
 92
        0
100
AcDbWipeout
 90
        0
 10
-756.69522060355871
 20
-275.00006065441676
 30
0.0
 11
0.0000606544167567
 21
0.0
 31
0.0
 12
0.0
 22
0.0000606544167567
 32
0.0
 13
1.0
 23
1.0
340
0
 70
               7
280
               1
281
              50
282
              50
283
               0
360
0
 71
               2
 91
       10
 14
-0.1774192801070664
 24
-0.5
 14
-0.2177930235709991
 24
-0.3748413982607484
 14
-0.2581521509524112
 24
-0.24972811237519
 14
-0.29849666412564
 24
-0.1246601395318189
 14
-0.3388265630906857
 24
0.0003625174578591
 14
-0.3791418459732108
 24
0.1253398595310125
 14
-0.4194425127732153
 24
0.25027188762481
 14
-0.4597285653650366
 24
0.3751586017392516
 14
-0.5
 24
0.5
 14
-0.1774192801070664
 24
-0.5
  0
SPLINE
  5
81
100
AcDbEntity
  8
一般
370
              15
  6
Continuous
 62
               7
100
AcDbSpline
210
0.0
220
0.0
230
1.0
 70
               8
 71
               2
 72
               6
 73
               3
 74
               0
 42
0.000001
 43
0.000001
 40
0.0
 40
0.0
 40
0.0
 40
1.0
 40
1.0
 40
1.0
 10
-756.69520103761329
 20
-275.0
 30
0.0
 10
-756.6952108347698
 20
-275.00003037118495
 30
0.0
 10
-756.69522060355871
 20
-275.00006065441676
 30
0.0
  0
WIPEOUT
  5
82
100
AcDbEntity
  8
一般
370
              15
  6
Continuous
 62
               7
 92
        0
100
AcDbWipeout
 90
        0
 10
-1085.1263667456014
 20
-420.0
 30
0.0
 11
326.86175266022587
 21
0.0
 31
0.0
 12
0.0
 22
326.86175266022587
 32
0.0
 13
1.0
 23
1.0
340
0
 70
               7
280
               1
281
              50
282
              50
283
               0
360
0
 71
               2
 91
       35
 14
-0.5
 24
0.0709962132592581
 14
-0.4797746584635201
 24
0.1274234921694539
 14
-0.457304588855717
 24
0.1825039342368561
 14
-0.432589791176592
 24
0.236237539461465
 14
-0.4056302654261458
 24
0.2886243078432804
 14
-0.3764260116043771
 24
0.3396642393823023
 14
-0.3449770297112858
 24
0.3893573340785309
 14
-0.3112833197468726
 24
0.437703591931966
 14
-0.2753448817111369
 24
0.4847030129426078
 14
-0.2736915890310491
 24
0.4849420283653796
 14
-0.2719643447217937
 24
0.4856590746336948
 14
-0.2701631487833709
 24
0.4868541517475536
 14
-0.2682880012157806
 24
0.4885272597069559
 14
-0.2663389020190228
 24
0.4906783985119017
 14
-0.2643158511930976
 24
0.4933075681623909
 14
-0.2622188487380049
 24
0.4964147686584237
 14
-0.2600478946537447
 24
0.5
 14
0.2600496652975894
 24
0.5
 14
0.2622206193818497
 24
0.4964147686584237
 14
0.2643176218369424
 24
0.4933075681623909
 14
0.2663406726628675
 24
0.4906783985119017
 14
0.2682897718596253
 24
0.4885272597069559
 14
0.2701649194272157
 24
0.4868541517475536
 14
0.2719661153656384
 24
0.4856590746336948
 14
0.2736933596748938
 24
0.4849420283653796
 14
0.2753466523549817
 24
0.4847030129426078
 14
0.3112846870075638
 24
0.4377041442748276
 14
0.3449780456038735
 24
0.3893584699732837
 14
0.37642672814391
 24
0.3396659900379761
 14
0.4056307346276736
 24
0.2886267044689048
 14
0.4325900650551646
 24
0.2362406132660697
 14
0.4573047194263826
 24
0.182507716429471
 14
0.4797746977413276
 24
0.1274280139591082
 14
0.5
 24
0.0710015058549821
 14
-0.5
 24
0.0709962132592581
  0
SPLINE
  5
83
100
AcDbEntity
  8
一般
370
              15
  6
Continuous
 62
               7
100
AcDbSpline
210
0.0
220
0.0
230
1.0
 70
               8
 71
               2
 72
              14
 73
              11
 74
               0
 42
0.000001
 43
0.000001
 40
0.0
 40
0.0
 40
0.0
 40
1.0
 40
1.0
 40
2.0
 40
2.0
 40
3.0
 40
3.0
 40
4.0
 40
4.0
 40
5.0
 40
5.0
 40
5.0
 10
-1085.1263667456014
 20
-279.77507036804735
 30
0.0
 10
-1060.1502359178148
 20
-354.43120639974882
 30
0.0
 10
-1011.6952010376133
 20
-415.0
 30
0.0
 10
-1009.5819523835614
 20
-415.0
 30
0.0
 10
-1006.6952010376133
 20
-420.0
 30
0.0
 10
-921.69520103761329
 20
-420.0
 30
0.0
 10
-836.69520103761329
 20
-420.0
 30
0.0
 10
-833.80844969166515
 20
-415.0
 30
0.0
 10
-831.69520103761329
 20
-415.0
 30
0.0
 10
-783.24072756296982
 20
-354.43190815669573
 30
0.0
 10
-758.26461408537557
 20
-279.77680031516178
 30
0.0
  0
WIPEOUT
  5
84
100
AcDbEntity
  8
一般
370
              15
  6
Continuous
 62
               7
 92
        0
100
AcDbWipeout
 90
        0
 10
-1086.695201037614
 20
-275.00010947095268
 30
0.0
 11
0.0001094709526797
 21
0.0
 31
0.0
 12
0.0
 22
0.0001094709526797
 32
0.0
 13
1.0
 23
1.0
340
0
 70
               7
280
               1
281
              50
282
              50
283
               0
360
0
 71
               2
 91
       10
 14
-0.177419218626208
 24
0.5
 14
-0.2176866983412728
 24
0.3751709128919517
 14
-0.2579699260439545
 24
0.2502929934177909
 14
-0.2982689017342531
 24
0.1253662415775177
 14
-0.3385836254121687
 24
0.0003906584096435
 14
-0.3789140970777012
 24
-0.1246337581628545
 14
-0.4192603167308505
 24
-0.2497070065822091
 14
-0.4596222843716168
 24
-0.3748290873676763
 14
-0.5
 24
-0.5
 14
-0.177419218626208
 24
0.5
  0
SPLINE
  5
85
100
AcDbEntity
  8
一般
370
              15
  6
Continuous
 62
               7
100
AcDbSpline
210
0.0
220
0.0
230
1.0
 70
               8
 71
               2
 72
               6
 73
               3
 74
               0
 42
0.000001
 43
0.000001
 40
0.0
 40
0.0
 40
0.0
 40
1.0
 40
1.0
 40
1.0
 10
-1086.6951657243885
 20
-275.00010947095268
 30
0.0
 10
-1086.6951833534179
 20
-275.00005482100778
 30
0.0
 10
-1086.695201037614
 20
-275.0
 30
0.0
  0
LINE
  5
86
100
AcDbEntity
  8
一般
370
              15
  6
Continuous
 62
               7
100
AcDbLine
 10
-1081.2019113666715
 20
-275.0
 30
0.0
 11
-762.18849070855572
 21
-275.0
 31
0.0
  0
ARC
  5
87
100
AcDbEntity
  8
一般
370
              15
  6
Continuous
 62
               7
100
AcDbCircle
 10
-756.69520103761329
 20
-320.15625
 30
0.0
 40
45.156249999999986
100
AcDbArc
 50
95.393544807811324
 51
146.1449738717059
  0
ARC
  5
88
100
AcDbEntity
  8
一般
370
              15
  6
Continuous
 62
               7
100
AcDbCircle
 10
-1086.695201037614
 20
-320.15625
 30
0.0
 40
45.15625
100
AcDbArc
 50
33.855026128294085
 51
84.5747817481422
  0
ARC
  5
89
100
AcDbEntity
  8
一般
370
              15
  6
Continuous
 62
               7
100
AcDbCircle
 10
-955.66800457328873
 20
-201.77363341187527
 30
0.0
 40
186.45273317625103
100
AcDbArc
 50
291.71075251779115
 51
330.00000000000023
  0
ARC
  5
8A
100
AcDbEntity
  8
一般
370
              15
  6
Continuous
 62
               7
100
AcDbCircle
 10
-887.72239750193785
 20
-201.77363341187527
 30
0.0
 40
186.4527331762516
100
AcDbArc
 50
209.9999999999996
 51
248.28924748220885
  0
INSERT
  5
8B
100
AcDbEntity
  8
一般
 62
               7
100
AcDbBlockReference
  2
グループ-1
 10
0.0
 20
0.0
 30
0.0
  0
LINE
  5
8C
100
AcDbEntity
  8
一般
370
              15
  6
Continuous
 62
               7
100
AcDbLine
 10
-956.69520103761329
 20
-375.0
 30
0.0
 11
-886.69520103761329
 21
-375.0
 31
0.0
  0
INSERT
  5
8D
100
AcDbEntity
  8
一般
 62
               7
100
AcDbBlockReference
  2
グループ-3
 10
0.0
 20
0.0
 30
0.0
  0
ARC
  5
8E
100
AcDbEntity
  8
一般
370
              15
  6
Continuous
 62
               7
100
AcDbCircle
 10
-1081.2019113666715
 20
-279.0
 30
0.0
 40
4.0
100
AcDbArc
 50
90.0
 51
197.87869659584072
  0
ARC
  5
8F
100
AcDbEntity
  8
一般
370
              15
  6
Continuous
 62
               7
100
AcDbCircle
 10
-762.18849070855572
 20
-279.0
 30
0.0
 40
3.9999999999998646
100
AcDbArc
 50
342.12130340415825
 51
90.0
  0
ENDBLK
  5
90
100
AcDbEntity
  8
一般
100
AcDbBlockEnd
  0
BLOCK
  5
91
100
AcDbEntity
  8
寸法
100
AcDbBlockBegin
  2
*D8
 70
               1
 10
0.0
 20
0.0
 30
0.0
  3
*D8
  1

  0
LINE
  5
92
100
AcDbEntity
  8
寸法
370
              -2
  6
Continuous
 62
               0
100
AcDbLine
 10
363.30479896238603
 20
1400.0
 30
0.0
 11
363.30479896238603
 21
1465.0
 31
0.0
  0
LINE
  5
93
100
AcDbEntity
  8
寸法
370
              -2
  6
Continuous
 62
               0
100
AcDbLine
 10
693.30479896238671
 20
1400.0
 30
0.0
 11
693.30479896238671
 21
1465.0
 31
0.0
  0
LINE
  5
94
100
AcDbEntity
  8
寸法
370
              -2
  6
Continuous
 62
               0
100
AcDbLine
 10
358.30479896238603
 20
1460.0
 30
0.0
 11
363.30479896238603
 21
1460.0
 31
0.0
  0
LINE
  5
95
100
AcDbEntity
  8
寸法
370
              -2
  6
Continuous
 62
               0
100
AcDbLine
 10
693.30479896238671
 20
1460.0
 30
0.0
 11
698.30479896238671
 21
1460.0
 31
0.0
  0
LINE
  5
96
100
AcDbEntity
  8
寸法
370
              -2
  6
Continuous
 62
               0
100
AcDbLine
 10
363.30479896238603
 20
1460.0
 30
0.0
 11
693.30479896238671
 21
1460.0
 31
0.0
  0
CIRCLE
  5
97
102
{ACAD_REACTORS
330
98
102
}
100
AcDbEntity
  8
寸法
370
              -2
  6
Continuous
 62
               0
100
AcDbCircle
 10
363.30479896238603
 20
1460.0
 30
0.0
 40
2.50372314453125
  0
HATCH
  5
98
100
AcDbEntity
  8
寸法
370
              -2
  6
Continuous
 62
               0
100
AcDbHatch
 10
0.0
 20
0.0
 30
0.0
210
0.0
220
0.0
230
1.0
  2
SOLID
 70
               1
 71
               1
 91
        1
 92
        1
 93
        1
 72
               2
 10
363.30479896238603
 20
1460.0
 40
2.50372314453125
 50
0.0
 51
360.0
 73
               0
 97
        1
330
97
 75
               0
 76
               1
 98
        1
 10
0.0
 20
0.0
  0
CIRCLE
  5
99
102
{ACAD_REACTORS
330
9A
102
}
100
AcDbEntity
  8
寸法
370
              -2
  6
Continuous
 62
               0
100
AcDbCircle
 10
693.30479896238671
 20
1460.0
 30
0.0
 40
2.50372314453125
  0
HATCH
  5
9A
100
AcDbEntity
  8
寸法
370
              -2
  6
Continuous
 62
               0
100
AcDbHatch
 10
0.0
 20
0.0
 30
0.0
210
0.0
220
0.0
230
1.0
  2
SOLID
 70
               1
 71
               1
 91
        1
 92
        1
 93
        1
 72
               2
 10
693.30479896238671
 20
1460.0
 40
2.50372314453125
 50
0.0
 51
360.0
 73
               0
 97
        1
330
99
 75
               0
 76
               1
 98
        1
 10
0.0
 20
0.0
  0
MTEXT
  5
9B
100
AcDbEntity
  8
寸法
 62
               0
100
AcDbMText
 10
493.02702118460854
 20
1490.6689930555556
 30
0.0
 40
24.694444444444446
 41
0.0
 71
               1
 72
               1
  1
{\H0.8795x;\lφ330}
 73
               1
 44
0.7828267384257843
  0
POINT
  5
9C
100
AcDbEntity
  8
Defpoints
370
               0
 62
               0
100
AcDbPoint
 10
693.30479896238671
 20
1390.0
 30
0.0
  0
POINT
  5
9D
100
AcDbEntity
  8
Defpoints
370
               0
 62
               0
100
AcDbPoint
 10
363.30479896238603
 20
1390.0
 30
0.0
  0
POINT
  5
9E
100
AcDbEntity
  8
Defpoints
370
               0
 62
               0
100
AcDbPoint
 10
363.30479896238603
 20
1460.0
 30
0.0
  0
ENDBLK
  5
9F
100
AcDbEntity
  8
寸法
100
AcDbBlockEnd
  0
BLOCK
  5
A0
100
AcDbEntity
  8
寸法
100
AcDbBlockBegin
  2
*D9
 70
               1
 10
0.0
 20
0.0
 30
0.0
  3
*D9
  1

  0
LINE
  5
A1
100
AcDbEntity
  8
寸法
370
              -2
  6
Continuous
 62
               0
100
AcDbLine
 10
700.0
 20
745.0
 30
0.0
 11
795.0
 21
745.0
 31
0.0
  0
LINE
  5
A2
100
AcDbEntity
  8
寸法
370
              -2
  6
Continuous
 62
               0
100
AcDbLine
 10
700.0
 20
600.0
 30
0.0
 11
795.0
 21
600.0
 31
0.0
  0
LINE
  5
A3
100
AcDbEntity
  8
寸法
370
              -2
  6
Continuous
 62
               0
100
AcDbLine
 10
790.0
 20
750.0
 30
0.0
 11
790.0
 21
745.0
 31
0.0
  0
LINE
  5
A4
100
AcDbEntity
  8
寸法
370
              -2
  6
Continuous
 62
               0
100
AcDbLine
 10
790.0
 20
600.0
 30
0.0
 11
790.0
 21
595.0
 31
0.0
  0
LINE
  5
A5
100
AcDbEntity
  8
寸法
370
              -2
  6
Continuous
 62
               0
100
AcDbLine
 10
790.0
 20
745.0
 30
0.0
 11
790.0
 21
600.0
 31
0.0
  0
CIRCLE
  5
A6
102
{ACAD_REACTORS
330
A7
102
}
100
AcDbEntity
  8
寸法
370
              -2
  6
Continuous
 62
               0
100
AcDbCircle
 10
790.0
 20
745.0
 30
0.0
 40
2.50372314453125
  0
HATCH
  5
A7
100
AcDbEntity
  8
寸法
370
              -2
  6
Continuous
 62
               0
100
AcDbHatch
 10
0.0
 20
0.0
 30
0.0
210
0.0
220
0.0
230
1.0
  2
SOLID
 70
               1
 71
               1
 91
        1
 92
        1
 93
        1
 72
               2
 10
790.0
 20
745.0
 40
2.50372314453125
 50
0.0
 51
360.0
 73
               0
 97
        1
330
A6
 75
               0
 76
               1
 98
        1
 10
0.0
 20
0.0
  0
CIRCLE
  5
A8
102
{ACAD_REACTORS
330
A9
102
}
100
AcDbEntity
  8
寸法
370
              -2
  6
Continuous
 62
               0
100
AcDbCircle
 10
790.0
 20
600.0
 30
0.0
 40
2.50372314453125
  0
HATCH
  5
A9
100
AcDbEntity
  8
寸法
370
              -2
  6
Continuous
 62
               0
100
AcDbHatch
 10
0.0
 20
0.0
 30
0.0
210
0.0
220
0.0
230
1.0
  2
SOLID
 70
               1
 71
               1
 91
        1
 92
        1
 93
        1
 72
               2
 10
790.0
 20
600.0
 40
2.50372314453125
 50
0.0
 51
360.0
 73
               0
 97
        1
330
A8
 75
               0
 76
               1
 98
        1
 10
0.0
 20
0.0
  0
MTEXT
  5
AA
100
AcDbEntity
  8
寸法
 62
               0
100
AcDbMText
 10
759.33100694444454
 20
651.33333333333337
 30
0.0
 40
24.694444444444446
 41
0.0
 71
               1
 72
               1
  1
{\H0.8795x;\l145}
 11
0.0
 21
1.0
 31
0.0
 73
               1
 44
0.7828267384257843
  0
POINT
  5
AB
100
AcDbEntity
  8
Defpoints
370
               0
 62
               0
100
AcDbPoint
 10
690.0
 20
600.0
 30
0.0
  0
POINT
  5
AC
100
AcDbEntity
  8
Defpoints
370
               0
 62
               0
100
AcDbPoint
 10
690.0
 20
745.0
 30
0.0
  0
POINT
  5
AD
100
AcDbEntity
  8
Defpoints
370
               0
 62
               0
100
AcDbPoint
 10
790.0
 20
745.0
 30
0.0
  0
ENDBLK
  5
AE
100
AcDbEntity
  8
寸法
100
AcDbBlockEnd
  0
BLOCK
  5
AF
100
AcDbEntity
  8
寸法
100
AcDbBlockBegin
  2
*D10
 70
               1
 10
0.0
 20
0.0
 30
0.0
  3
*D10
  1

  0
LINE
  5
B0
100
AcDbEntity
  8
寸法
370
              -2
  6
Continuous
 62
               0
100
AcDbLine
 10
700.0
 20
745.0
 30
0.0
 11
752.73502691896385
 21
745.0
 31
0.0
  0
LINE
  5
B1
100
AcDbEntity
  8
寸法
370
              -2
  6
Continuous
 62
               0
100
AcDbLine
 10
700.0
 20
645.0
 30
0.0
 11
752.73502691896385
 21
645.0
 31
0.0
  0
LINE
  5
B2
100
AcDbEntity
  8
寸法
370
              -2
  6
Continuous
 62
               0
100
AcDbLine
 10
747.73502691896385
 20
750.0
 30
0.0
 11
747.73502691896385
 21
745.0
 31
0.0
  0
LINE
  5
B3
100
AcDbEntity
  8
寸法
370
              -2
  6
Continuous
 62
               0
100
AcDbLine
 10
747.73502691896385
 20
645.0
 30
0.0
 11
747.73502691896385
 21
640.0
 31
0.0
  0
LINE
  5
B4
100
AcDbEntity
  8
寸法
370
              -2
  6
Continuous
 62
               0
100
AcDbLine
 10
747.73502691896385
 20
745.0
 30
0.0
 11
747.73502691896385
 21
645.0
 31
0.0
  0
CIRCLE
  5
B5
102
{ACAD_REACTORS
330
B6
102
}
100
AcDbEntity
  8
寸法
370
              -2
  6
Continuous
 62
               0
100
AcDbCircle
 10
747.73502691896385
 20
745.0
 30
0.0
 40
2.50372314453125
  0
HATCH
  5
B6
100
AcDbEntity
  8
寸法
370
              -2
  6
Continuous
 62
               0
100
AcDbHatch
 10
0.0
 20
0.0
 30
0.0
210
0.0
220
0.0
230
1.0
  2
SOLID
 70
               1
 71
               1
 91
        1
 92
        1
 93
        1
 72
               2
 10
747.73502691896385
 20
745.0
 40
2.50372314453125
 50
0.0
 51
360.0
 73
               0
 97
        1
330
B5
 75
               0
 76
               1
 98
        1
 10
0.0
 20
0.0
  0
CIRCLE
  5
B7
102
{ACAD_REACTORS
330
B8
102
}
100
AcDbEntity
  8
寸法
370
              -2
  6
Continuous
 62
               0
100
AcDbCircle
 10
747.73502691896385
 20
645.0
 30
0.0
 40
2.50372314453125
  0
HATCH
  5
B8
100
AcDbEntity
  8
寸法
370
              -2
  6
Continuous
 62
               0
100
AcDbHatch
 10
0.0
 20
0.0
 30
0.0
210
0.0
220
0.0
230
1.0
  2
SOLID
 70
               1
 71
               1
 91
        1
 92
        1
 93
        1
 72
               2
 10
747.73502691896385
 20
645.0
 40
2.50372314453125
 50
0.0
 51
360.0
 73
               0
 97
        1
330
B7
 75
               0
 76
               1
 98
        1
 10
0.0
 20
0.0
  0
MTEXT
  5
B9
100
AcDbEntity
  8
寸法
 62
               0
100
AcDbMText
 10
717.06603386340839
 20
673.83333333333337
 30
0.0
 40
24.694444444444446
 41
0.0
 71
               1
 72
               1
  1
{\H0.8795x;\l100}
 11
0.0
 21
1.0
 31
0.0
 73
               1
 44
0.7828267384257843
  0
POINT
  5
BA
100
AcDbEntity
  8
Defpoints
370
               0
 62
               0
100
AcDbPoint
 10
690.0
 20
645.0
 30
0.0
  0
POINT
  5
BB
100
AcDbEntity
  8
Defpoints
370
               0
 62
               0
100
AcDbPoint
 10
690.0
 20
745.0
 30
0.0
  0
POINT
  5
BC
100
AcDbEntity
  8
Defpoints
370
               0
 62
               0
100
AcDbPoint
 10
747.73502691896385
 20
745.0
 30
0.0
  0
ENDBLK
  5
BD
100
AcDbEntity
  8
寸法
100
AcDbBlockEnd
  0
BLOCK
  5
BE
100
AcDbEntity
  8
寸法
100
AcDbBlockBegin
  2
*D11
 70
               1
 10
0.0
 20
0.0
 30
0.0
  3
*D11
  1

  0
LINE
  5
BF
100
AcDbEntity
  8
寸法
370
              -2
  6
Continuous
 62
               0
100
AcDbLine
 10
443.30479896238671
 20
540.0
 30
0.0
 11
443.30479896238671
 21
505.0
 31
0.0
  0
LINE
  5
C0
100
AcDbEntity
  8
寸法
370
              -2
  6
Continuous
 62
               0
100
AcDbLine
 10
613.30479896238671
 20
540.0
 30
0.0
 11
613.30479896238671
 21
505.0
 31
0.0
  0
LINE
  5
C1
100
AcDbEntity
  8
寸法
370
              -2
  6
Continuous
 62
               0
100
AcDbLine
 10
438.30479896238671
 20
510.0
 30
0.0
 11
443.30479896238671
 21
510.0
 31
0.0
  0
LINE
  5
C2
100
AcDbEntity
  8
寸法
370
              -2
  6
Continuous
 62
               0
100
AcDbLine
 10
613.30479896238671
 20
510.0
 30
0.0
 11
618.30479896238671
 21
510.0
 31
0.0
  0
LINE
  5
C3
100
AcDbEntity
  8
寸法
370
              -2
  6
Continuous
 62
               0
100
AcDbLine
 10
443.30479896238671
 20
510.0
 30
0.0
 11
613.30479896238671
 21
510.0
 31
0.0
  0
CIRCLE
  5
C4
102
{ACAD_REACTORS
330
C5
102
}
100
AcDbEntity
  8
寸法
370
              -2
  6
Continuous
 62
               0
100
AcDbCircle
 10
443.30479896238671
 20
510.0
 30
0.0
 40
2.50372314453125
  0
HATCH
  5
C5
100
AcDbEntity
  8
寸法
370
              -2
  6
Continuous
 62
               0
100
AcDbHatch
 10
0.0
 20
0.0
 30
0.0
210
0.0
220
0.0
230
1.0
  2
SOLID
 70
               1
 71
               1
 91
        1
 92
        1
 93
        1
 72
               2
 10
443.30479896238671
 20
510.0
 40
2.50372314453125
 50
0.0
 51
360.0
 73
               0
 97
        1
330
C4
 75
               0
 76
               1
 98
        1
 10
0.0
 20
0.0
  0
CIRCLE
  5
C6
102
{ACAD_REACTORS
330
C7
102
}
100
AcDbEntity
  8
寸法
370
              -2
  6
Continuous
 62
               0
100
AcDbCircle
 10
613.30479896238671
 20
510.0
 30
0.0
 40
2.50372314453125
  0
HATCH
  5
C7
100
AcDbEntity
  8
寸法
370
              -2
  6
Continuous
 62
               0
100
AcDbHatch
 10
0.0
 20
0.0
 30
0.0
210
0.0
220
0.0
230
1.0
  2
SOLID
 70
               1
 71
               1
 91
        1
 92
        1
 93
        1
 72
               2
 10
613.30479896238671
 20
510.0
 40
2.50372314453125
 50
0.0
 51
360.0
 73
               0
 97
        1
330
C6
 75
               0
 76
               1
 98
        1
 10
0.0
 20
0.0
  0
WIPEOUT
  5
C8
100
AcDbEntity
  8
寸法
370
              -2
  6
Continuous
 62
               0
 92
        0
100
AcDbWipeout
 90
        0
 10
493.02702118460888
 20
945.0
 30
0.0
 11
70.555555555555543
 21
0.0
 31
0.0
 12
0.0
 22
70.555555555555543
 32
0.0
 13
1.0
 23
1.0
340
0
 70
               7
280
               1
281
              50
282
              50
283
               0
360
0
 71
               2
 91
        5
 14
-0.5
 24
6.5944881889763787
 14
0.5
 24
6.5944881889763787
 14
0.5
 24
6.1944881889763801
 14
-0.5
 24
6.1944881889763801
 14
-0.5
 24
6.5944881889763787
  0
MTEXT
  5
C9
100
AcDbEntity
  8
寸法
 62
               0
100
AcDbMText
 10
493.02702118460888
 20
540.66899305555557
 30
0.0
 40
24.694444444444446
 41
0.0
 71
               1
 72
               1
  1
{\H0.8795x;\lφ170}
 73
               1
 44
0.7828267384257843
  0
POINT
  5
CA
100
AcDbEntity
  8
Defpoints
370
               0
 62
               0
100
AcDbPoint
 10
613.30479896238671
 20
550.0
 30
0.0
  0
POINT
  5
CB
100
AcDbEntity
  8
Defpoints
370
               0
 62
               0
100
AcDbPoint
 10
443.30479896238671
 20
550.0
 30
0.0
  0
POINT
  5
CC
100
AcDbEntity
  8
Defpoints
370
               0
 62
               0
100
AcDbPoint
 10
443.30479896238671
 20
510.0
 30
0.0
  0
ENDBLK
  5
CD
100
AcDbEntity
  8
寸法
100
AcDbBlockEnd
  0
BLOCK
  5
CE
100
AcDbEntity
  8
一般
100
AcDbBlockBegin
  2
グループ-5
 70
               0
 10
0.0
 20
0.0
 30
0.0
  3
グループ-5
  1

  0
LINE
  5
CF
100
AcDbEntity
  8
一般
370
               5
  6
Continuous
 62
               7
100
AcDbLine
 10
-380.51194326120287
 20
-385.0
 30
0.0
 11
-334.51194326120287
 21
-385.0
 31
0.0
  0
LINE
  5
D0
100
AcDbEntity
  8
寸法
370
              15
  6
Continuous
 62
               7
100
AcDbLine
 10
-334.03934028847118
 20
-385.0
 30
0.0
 11
-334.03934028847118
 21
-400.0
 31
0.0
  0
LINE
  5
D1
100
AcDbEntity
  8
寸法
370
              15
  6
Continuous
 62
               7
100
AcDbLine
 10
-334.03934028847118
 20
-410.0
 30
0.0
 11
-334.03934028847118
 21
-420.0
 31
0.0
  0
LINE
  5
D2
100
AcDbEntity
  8
寸法
370
              15
  6
Continuous
 62
               7
100
AcDbLine
 10
-380.76194326120287
 20
-385.0
 30
0.0
 11
-380.76194326120287
 21
-400.0
 31
0.0
  0
LINE
  5
D3
100
AcDbEntity
  8
寸法
370
              15
  6
Continuous
 62
               7
100
AcDbLine
 10
-380.76194326120287
 20
-410.0
 30
0.0
 11
-380.76194326120287
 21
-420.0
 31
0.0
  0
LINE
  5
D4
100
AcDbEntity
  8
一般
370
               5
  6
Continuous
 62
               7
100
AcDbLine
 10
-334.51194326120287
 20
-410.0
 30
0.0
 11
-380.51194326120287
 21
-410.0
 31
0.0
  0
LINE
  5
D5
100
AcDbEntity
  8
一般
370
               5
  6
Continuous
 62
               7
100
AcDbLine
 10
-334.51194326120287
 20
-400.0
 30
0.0
 11
-380.51194326120287
 21
-400.0
 31
0.0
  0
LINE
  5
D6
100
AcDbEntity
  8
一般
370
               5
  6
Continuous
 62
               7
100
AcDbLine
 10
-334.51194326120287
 20
-385.0
 30
0.0
 11
-380.51194326120287
 21
-385.0
 31
0.0
  0
LINE
  5
D7
100
AcDbEntity
  8
一般
370
              15
  6
Continuous
 62
               7
100
AcDbLine
 10
-380.76194326120287
 20
-385.0
 30
0.0
 11
-393.14941030621037
 21
-375.0
 31
0.0
  0
LINE
  5
D8
100
AcDbEntity
  8
一般
370
              15
  6
Continuous
 62
               7
100
AcDbLine
 10
-334.03934028847118
 20
-385.0
 30
0.0
 11
-321.65187324346391
 21
-375.0
 31
0.0
  0
LINE
  5
D9
100
AcDbEntity
  8
一般
370
              15
  6
Continuous
 62
               7
100
AcDbLine
 10
-334.03934028847118
 20
-400.0
 30
0.0
 11
-323.03934028847118
 21
-400.0
 31
0.0
  0
LINE
  5
DA
100
AcDbEntity
  8
一般
370
              15
  6
Continuous
 62
               7
100
AcDbLine
 10
-334.03934028847118
 20
-410.0
 30
0.0
 11
-323.03934028847118
 21
-410.0
 31
0.0
  0
LINE
  5
DB
100
AcDbEntity
  8
一般
370
              15
  6
Continuous
 62
               7
100
AcDbLine
 10
-323.03934028847118
 20
-400.0
 30
0.0
 11
-323.03934028847118
 21
-410.0
 31
0.0
  0
LINE
  5
DC
100
AcDbEntity
  8
一般
370
              15
  6
Continuous
 62
               7
100
AcDbLine
 10
-380.76194326120287
 20
-400.0
 30
0.0
 11
-391.76194326120287
 21
-400.0
 31
0.0
  0
LINE
  5
DD
100
AcDbEntity
  8
一般
370
              15
  6
Continuous
 62
               7
100
AcDbLine
 10
-380.76194326120287
 20
-410.0
 30
0.0
 11
-391.76194326120287
 21
-410.0
 31
0.0
  0
LINE
  5
DE
100
AcDbEntity
  8
一般
370
              15
  6
Continuous
 62
               7
100
AcDbLine
 10
-391.76194326120287
 20
-400.0
 30
0.0
 11
-391.76194326120287
 21
-410.0
 31
0.0
  0
LINE
  5
DF
100
AcDbEntity
  8
一般
370
              15
  6
Continuous
 62
               7
100
AcDbLine
 10
-396.38694326120287
 20
-420.0
 30
0.0
 11
-316.38694326120287
 21
-420.0
 31
0.0
  0
ENDBLK
  5
E0
100
AcDbEntity
  8
一般
100
AcDbBlockEnd
  0
BLOCK
  5
E1
100
AcDbEntity
  8
一般
100
AcDbBlockBegin
  2
グループ-6
 70
               0
 10
0.0
 20
0.0
 30
0.0
  3
グループ-6
  1

  0
WIPEOUT
  5
E2
100
AcDbEntity
  8
一般
370
              15
  6
Continuous
 62
               7
 92
        0
100
AcDbWipeout
 90
        0
 10
-192.5119628271483
 20
-275.00006065441676
 30
0.0
 11
0.0000606544167567
 21
0.0
 31
0.0
 12
0.0
 22
0.0000606544167567
 32
0.0
 13
1.0
 23
1.0
340
0
 70
               7
280
               1
281
              50
282
              50
283
               0
360
0
 71
               2
 91
       10
 14
-0.1774192801070664
 24
-0.5
 14
-0.2177930240395833
 24
-0.3748413982607484
 14
-0.2581521523581641
 24
-0.24972811237519
 14
-0.2984966650628087
 24
-0.1246601395318189
 14
-0.3388265630906857
 24
0.0003625174578591
 14
-0.3791418450360421
 24
0.1253398595310125
 14
-0.419442512304631
 24
0.25027188762481
 14
-0.4597285639592836
 24
0.3751586017392516
 14
-0.5
 24
0.5
 14
-0.1774192801070664
 24
-0.5
  0
SPLINE
  5
E3
100
AcDbEntity
  8
一般
370
              15
  6
Continuous
 62
               7
100
AcDbSpline
210
0.0
220
0.0
230
1.0
 70
               8
 71
               2
 72
               6
 73
               3
 74
               0
 42
0.000001
 43
0.000001
 40
0.0
 40
0.0
 40
0.0
 40
1.0
 40
1.0
 40
1.0
 10
-192.51194326120287
 20
-275.0
 30
0.0
 10
-192.51195305835938
 20
-275.00003037118495
 30
0.0
 10
-192.5119628271483
 20
-275.00006065441676
 30
0.0
  0
WIPEOUT
  5
E4
100
AcDbEntity
  8
一般
370
              15
  6
Continuous
 62
               7
 92
        0
100
AcDbWipeout
 90
        0
 10
-520.94310896919103
 20
-420.0
 30
0.0
 11
326.86175266022587
 21
0.0
 31
0.0
 12
0.0
 22
326.86175266022587
 32
0.0
 13
1.0
 23
1.0
340
0
 70
               7
280
               1
281
              50
282
              50
283
               0
360
0
 71
               2
 91
       35
 14
-0.5
 24
0.0709962132592581
 14
-0.4797746584635198
 24
0.1274234921694539
 14
-0.4573045888557172
 24
0.1825039342368561
 14
-0.4325897911765925
 24
0.236237539461465
 14
-0.4056302654261457
 24
0.2886243078432804
 14
-0.3764260116043767
 24
0.3396642393823023
 14
-0.3449770297112854
 24
0.3893573340785309
 14
-0.3112833197468723
 24
0.437703591931966
 14
-0.2753448817111369
 24
0.4847030129426078
 14
-0.2736915890310491
 24
0.4849420283653796
 14
-0.2719643447217937
 24
0.4856590746336948
 14
-0.2701631487833709
 24
0.4868541517475536
 14
-0.2682880012157806
 24
0.4885272597069559
 14
-0.2663389020190228
 24
0.4906783985119017
 14
-0.2643158511930976
 24
0.4933075681623909
 14
-0.2622188487380049
 24
0.4964147686584237
 14
-0.2600478946537447
 24
0.5
 14
0.2600496652975894
 24
0.5
 14
0.2622206193818497
 24
0.4964147686584237
 14
0.2643176218369424
 24
0.4933075681623909
 14
0.2663406726628675
 24
0.4906783985119017
 14
0.2682897718596253
 24
0.4885272597069559
 14
0.2701649194272157
 24
0.4868541517475536
 14
0.2719661153656384
 24
0.4856590746336948
 14
0.2736933596748938
 24
0.4849420283653796
 14
0.2753466523549817
 24
0.4847030129426078
 14
0.3112846870075638
 24
0.4377041442748276
 14
0.3449780456038735
 24
0.3893584699732837
 14
0.37642672814391
 24
0.3396659900379761
 14
0.4056307346276736
 24
0.2886267044689048
 14
0.4325900650551646
 24
0.2362406132660697
 14
0.4573047194263826
 24
0.182507716429471
 14
0.4797746977413276
 24
0.1274280139591082
 14
0.5
 24
0.0710015058549821
 14
-0.5
 24
0.0709962132592581
  0
SPLINE
  5
E5
100
AcDbEntity
  8
一般
370
              15
  6
Continuous
 62
               7
100
AcDbSpline
210
0.0
220
0.0
230
1.0
 70
               8
 71
               2
 72
              14
 73
              11
 74
               0
 42
0.000001
 43
0.000001
 40
0.0
 40
0.0
 40
0.0
 40
1.0
 40
1.0
 40
2.0
 40
2.0
 40
3.0
 40
3.0
 40
4.0
 40
4.0
 40
5.0
 40
5.0
 40
5.0
 10
-520.94310896919103
 20
-279.77507036804735
 30
0.0
 10
-495.96697814140441
 20
-354.43120639974882
 30
0.0
 10
-447.51194326120287
 20
-415.0
 30
0.0
 10
-445.39869460715101
 20
-415.0
 30
0.0
 10
-442.51194326120287
 20
-420.0
 30
0.0
 10
-357.51194326120287
 20
-420.0
 30
0.0
 10
-272.51194326120287
 20
-420.0
 30
0.0
 10
-269.62519191525473
 20
-415.0
 30
0.0
 10
-267.51194326120287
 20
-415.0
 30
0.0
 10
-219.05746978655941
 20
-354.43190815669573
 30
0.0
 10
-194.08135630896516
 20
-279.77680031516178
 30
0.0
  0
WIPEOUT
  5
E6
100
AcDbEntity
  8
一般
370
              15
  6
Continuous
 62
               7
 92
        0
100
AcDbWipeout
 90
        0
 10
-522.51194326120356
 20
-275.00010947095268
 30
0.0
 11
0.0001094709526797
 21
0.0
 31
0.0
 12
0.0
 22
0.0001094709526797
 32
0.0
 13
1.0
 23
1.0
340
0
 70
               7
280
               1
281
              50
282
              50
283
               0
360
0
 71
               2
 91
       10
 14
-0.177419218626208
 24
0.5
 14
-0.2176866973027614
 24
0.3751709128919517
 14
-0.2579699250054431
 24
0.2502929934177909
 14
-0.2982689006957418
 24
0.1253662415775177
 14
-0.3385836243736573
 24
0.0003906584096435
 14
-0.3789140960391897
 24
-0.1246337581628545
 14
-0.4192603156923391
 24
-0.2497070065822091
 14
-0.4596222833331053
 24
-0.3748290873676763
 14
-0.5
 24
-0.5
 14
-0.177419218626208
 24
0.5
  0
SPLINE
  5
E7
100
AcDbEntity
  8
一般
370
              15
  6
Continuous
 62
               7
100
AcDbSpline
210
0.0
220
0.0
230
1.0
 70
               8
 71
               2
 72
               6
 73
               3
 74
               0
 42
0.000001
 43
0.000001
 40
0.0
 40
0.0
 40
0.0
 40
1.0
 40
1.0
 40
1.0
 10
-522.5119079479781
 20
-275.00010947095268
 30
0.0
 10
-522.51192557700745
 20
-275.00005482100778
 30
0.0
 10
-522.51194326120356
 20
-275.0
 30
0.0
  0
LINE
  5
E8
100
AcDbEntity
  8
一般
370
              15
  6
Continuous
 62
               7
100
AcDbLine
 10
-517.01865359026112
 20
-275.0
 30
0.0
 11
-198.0052329321453
 21
-275.0
 31
0.0
  0
ARC
  5
E9
100
AcDbEntity
  8
一般
370
              15
  6
Continuous
 62
               7
100
AcDbCircle
 10
-192.51194326120287
 20
-320.15625
 30
0.0
 40
45.156249999999986
100
AcDbArc
 50
95.393544807811324
 51
146.1449738717059
  0
ARC
  5
EA
100
AcDbEntity
  8
一般
370
              15
  6
Continuous
 62
               7
100
AcDbCircle
 10
-522.51194326120356
 20
-320.15625
 30
0.0
 40
45.15625
100
AcDbArc
 50
33.855026128294085
 51
84.5747817481422
  0
ARC
  5
EB
100
AcDbEntity
  8
一般
370
              15
  6
Continuous
 62
               7
100
AcDbCircle
 10
-391.48474679687831
 20
-201.77363341187527
 30
0.0
 40
186.45273317625103
100
AcDbArc
 50
291.71075251779115
 51
330.00000000000023
  0
ARC
  5
EC
100
AcDbEntity
  8
一般
370
              15
  6
Continuous
 62
               7
100
AcDbCircle
 10
-323.53913972552743
 20
-201.77363341187527
 30
0.0
 40
186.4527331762516
100
AcDbArc
 50
209.9999999999996
 51
248.28924748220885
  0
INSERT
  5
ED
100
AcDbEntity
  8
一般
 62
               7
100
AcDbBlockReference
  2
グループ-5
 10
0.0
 20
0.0
 30
0.0
  0
LINE
  5
EE
100
AcDbEntity
  8
一般
370
              15
  6
Continuous
 62
               7
100
AcDbLine
 10
-392.51194326120287
 20
-375.0
 30
0.0
 11
-322.51194326120287
 21
-375.0
 31
0.0
  0
ARC
  5
EF
100
AcDbEntity
  8
一般
370
              15
  6
Continuous
 62
               7
100
AcDbCircle
 10
-517.01865359026112
 20
-279.0
 30
0.0
 40
4.0
100
AcDbArc
 50
90.0
 51
197.87869659584072
  0
ARC
  5
F0
100
AcDbEntity
  8
一般
370
              15
  6
Continuous
 62
               7
100
AcDbCircle
 10
-198.0052329321453
 20
-279.0
 30
0.0
 40
3.9999999999998646
100
AcDbArc
 50
342.12130340415825
 51
90.0
  0
ENDBLK
  5
F1
100
AcDbEntity
  8
一般
100
AcDbBlockEnd
  0
BLOCK
  5
F2
100
AcDbEntity
  8
一般
100
AcDbBlockBegin
  2
グループ-7
 70
               0
 10
0.0
 20
0.0
 30
0.0
  3
グループ-7
  1

  0
WIPEOUT
  5
F3
100
AcDbEntity
  8
寸法
370
              15
  6
Continuous
 62
               7
 92
        0
100
AcDbWipeout
 90
        0
 10
-936.69520103761329
 20
325.0
 30
0.0
 11
30.0
 21
0.0
 31
0.0
 12
0.0
 22
30.0
 32
0.0
 13
1.0
 23
1.0
340
0
 70
               7
280
               1
281
              50
282
              50
283
               0
360
0
 71
               2
 91
        9
 14
0.0
 24
0.5
 14
-0.3535533905932728
 24
0.4023689270621825
 14
-0.5
 24
0.1666666666666667
 14
-0.3535533905932728
 24
-0.0690355937288492
 14
0.0
 24
-0.1666666666666666
 14
0.3535533905932728
 24
-0.0690355937288492
 14
0.5
 24
0.1666666666666667
 14
0.3535533905932728
 24
0.4023689270621825
 14
0.0
 24
0.5
  0
SPLINE
  5
F4
100
AcDbEntity
  8
寸法
370
              15
  6
Continuous
 62
               7
100
AcDbSpline
210
0.0
220
0.0
230
1.0
 70
               9
 71
               2
 72
              17
 73
              14
 74
               0
 42
0.000001
 43
0.000001
 40
0.0
 40
0.0
 40
0.0
 40
1.0
 40
2.0
 40
3.0
 40
4.0
 40
5.0
 40
6.0
 40
7.0
 40
8.0
 40
9.0
 40
10.0
 40
11.0
 40
12.0
 40
12.0
 40
12.0
 10
-929.19520103761329
 20
343.66025403784442
 30
0.0
 10
-925.71443892408013
 20
345.0
 30
0.0
 10
-917.67596315114645
 20
345.0
 30
0.0
 10
-910.71443892408013
 20
342.32050807568879
 30
0.0
 10
-906.69520103761329
 20
337.67949192431121
 30
0.0
 10
-906.69520103761329
 20
332.32050807568879
 30
0.0
 10
-910.71443892408013
 20
327.67949192431121
 30
0.0
 10
-917.67596315114645
 20
325.0
 30
0.0
 10
-925.71443892408013
 20
325.0
 30
0.0
 10
-932.67596315114645
 20
327.67949192431121
 30
0.0
 10
-936.69520103761329
 20
332.32050807568879
 30
0.0
 10
-936.69520103761329
 20
337.67949192431121
 30
0.0
 10
-932.67596315114645
 20
342.32050807568879
 30
0.0
 10
-929.19520103761329
 20
343.66025403784442
 30
0.0
  0
WIPEOUT
  5
F5
100
AcDbEntity
  8
寸法
370
              15
  6
Continuous
 62
               7
 92
        0
100
AcDbWipeout
 90
        0
 10
-931.69520103761329
 20
328.31558290142868
 30
0.0
 11
20.0
 21
0.0
 31
0.0
 12
0.0
 22
20.0
 32
0.0
 13
1.0
 23
1.0
340
0
 70
               7
280
               1
281
              50
282
              50
283
               0
360
0
 71
               2
 91
        9
 14
0.0
 24
0.5
 14
-0.353553390593271
 24
0.402108978005387
 14
-0.5
 24
0.1657791450714313
 14
-0.353553390593271
 24
-0.0705506878625244
 14
0.0
 24
-0.1684417098571374
 14
0.353553390593271
 24
-0.0705506878625244
 14
0.5
 24
0.1657791450714313
 14
0.353553390593271
 24
0.402108978005387
 14
0.0
 24
0.5
  0
SPLINE
  5
F6
100
AcDbEntity
  8
寸法
370
              15
  6
Continuous
 62
               7
100
AcDbSpline
210
0.0
220
0.0
230
1.0
 70
               9
 71
               2
 72
              17
 73
              14
 74
               0
 42
0.000001
 43
0.000001
 40
0.0
 40
0.0
 40
0.0
 40
1.0
 40
2.0
 40
3.0
 40
4.0
 40
5.0
 40
6.0
 40
7.0
 40
8.0
 40
9.0
 40
10.0
 40
11.0
 40
12.0
 40
12.0
 40
12.0
 10
-926.69520103761329
 20
340.78887501685392
 30
0.0
 10
-924.37469296192455
 20
341.68441709857143
 30
0.0
 10
-919.01570911330202
 20
341.68441709857143
 30
0.0
 10
-914.37469296192455
 20
339.89333293513647
 30
0.0
 10
-911.69520103761329
 20
336.79108416343502
 30
0.0
 10
-911.69520103761329
 20
333.2089158365651
 30
0.0
 10
-914.37469296192455
 20
330.10666706486364
 30
0.0
 10
-919.01570911330202
 20
328.31558290142868
 30
0.0
 10
-924.37469296192455
 20
328.31558290142868
 30
0.0
 10
-929.01570911330202
 20
330.10666706486364
 30
0.0
 10
-931.69520103761329
 20
333.2089158365651
 30
0.0
 10
-931.69520103761329
 20
336.79108416343502
 30
0.0
 10
-929.01570911330202
 20
339.89333293513647
 30
0.0
 10
-926.69520103761329
 20
340.78887501685392
 30
0.0
  0
ENDBLK
  5
F7
100
AcDbEntity
  8
一般
100
AcDbBlockEnd
  0
BLOCK
  5
F8
100
AcDbEntity
  8
一般
100
AcDbBlockBegin
  2
グループ-8
 70
               0
 10
0.0
 20
0.0
 30
0.0
  3
グループ-8
  1

  0
INSERT
  5
F9
100
AcDbEntity
  8
一般
 62
               7
100
AcDbBlockReference
  2
グループ-7
 10
0.0
 20
0.0
 30
0.0
  0
ENDBLK
  5
FA
100
AcDbEntity
  8
一般
100
AcDbBlockEnd
  0
BLOCK
  5
FB
100
AcDbEntity
  8
寸法
100
AcDbBlockBegin
  2
グループ-9
 70
               0
 10
0.0
 20
0.0
 30
0.0
  3
グループ-9
  1

  0
MTEXT
  5
FC
100
AcDbEntity
  8
寸法
 62
               7
100
AcDbMText
 10
-940.0
 20
174.25174479166662
 30
0.0
 40
18.520833333333332
 41
0.0
 71
               1
 72
               1
  1
{\H0.8795x;\lφ46}
 73
               1
 44
0.7828267384257843
  0
ENDBLK
  5
FD
100
AcDbEntity
  8
寸法
100
AcDbBlockEnd
  0
BLOCK
  5
FE
100
AcDbEntity
  8
寸法
100
AcDbBlockBegin
  2
グループ-10
 70
               0
 10
0.0
 20
0.0
 30
0.0
  3
グループ-10
  1

  0
LINE
  5
FF
100
AcDbEntity
  8
寸法
370
               5
  6
Continuous
 62
               7
100
AcDbLine
 10
-936.11861271262478
 20
192.08449845377572
 30
0.0
 11
-970.0
 21
149.99999999999997
 31
0.0
  0
LINE
  5
100
100
AcDbEntity
  8
寸法
370
               5
  6
Continuous
 62
               7
100
AcDbLine
 10
-970.0
 20
149.99999999999997
 30
0.0
 11
-897.66666666666663
 21
149.99999999999997
 31
0.0
  0
LINE
  5
101
100
AcDbEntity
  8
寸法
370
               5
  6
Continuous
 62
               7
100
AcDbLine
 10
-907.27178936260157
 20
227.9155015462245
 30
0.0
 11
-936.11861271262478
 21
192.08449845377572
 31
0.0
  0
LINE
  5
102
100
AcDbEntity
  8
寸法
370
               5
  6
Continuous
 62
               7
100
AcDbLine
 10
-907.27178936260157
 20
227.9155015462245
 30
0.0
 11
-909.73689803622733
 21
223.46832777706979
 31
0.0
  0
LINE
  5
103
100
AcDbEntity
  8
寸法
370
               5
  6
Continuous
 62
               7
100
AcDbLine
 10
-907.27178936260157
 20
227.9155015462245
 30
0.0
 11
-911.10925680256355
 21
224.57964199386399
 31
0.0
  0
LINE
  5
104
100
AcDbEntity
  8
寸法
370
               5
  6
Continuous
 62
               7
100
AcDbLine
 10
-909.73689803622733
 20
223.46832777706979
 30
0.0
 11
-911.10925680256355
 21
224.57964199386399
 31
0.0
  0
LINE
  5
105
100
AcDbEntity
  8
寸法
370
               5
  6
Continuous
 62
               7
100
AcDbLine
 10
-936.11861271262478
 20
192.08449845377572
 30
0.0
 11
-933.65350403899902
 21
196.53167222293044
 31
0.0
  0
LINE
  5
106
100
AcDbEntity
  8
寸法
370
               5
  6
Continuous
 62
               7
100
AcDbLine
 10
-936.11861271262478
 20
192.08449845377572
 30
0.0
 11
-932.2811452726628
 21
195.42035800613624
 31
0.0
  0
LINE
  5
107
100
AcDbEntity
  8
寸法
370
               5
  6
Continuous
 62
               7
100
AcDbLine
 10
-933.65350403899902
 20
196.53167222293044
 30
0.0
 11
-932.2811452726628
 21
195.42035800613624
 31
0.0
  0
INSERT
  5
108
100
AcDbEntity
  8
寸法
 62
               7
100
AcDbBlockReference
  2
グループ-9
 10
0.0
 20
0.0
 30
0.0
  0
ENDBLK
  5
109
100
AcDbEntity
  8
寸法
100
AcDbBlockEnd
  0
ENDSEC
  0
SECTION
  2
ENTITIES
  0
MTEXT
  5
10A
100
AcDbEntity
  8
一般
 62
               7
100
AcDbMText
 10
2747.3760430703423
 20
244.81122685185187
 30
0.0
 40
20.211226851851851
 41
0.0
 71
               1
 72
               1
  1
    
  7
Arial
 73
               1
 44
0.9673603504928809
  0
POLYLINE
  5
10B
100
AcDbEntity
  8
一般
370
               5
 62
               7
100
AcDb2dPolyline
 66
               1
 10
0.0
 20
0.0
 30
0.0
 70
               1
 75
               5
  0
VERTEX
  5
10C
100
AcDbEntity
  8
一般
370
               5
 62
               7
100
AcDbVertex
100
AcDb2dVertex
 10
2650.0
 20
250.0
 30
0.0
  0
VERTEX
  5
10D
100
AcDbEntity
  8
一般
370
               5
 62
               7
100
AcDbVertex
100
AcDb2dVertex
 10
2800.0
 20
250.0
 30
0.0
  0
VERTEX
  5
10E
100
AcDbEntity
  8
一般
370
               5
 62
               7
100
AcDbVertex
100
AcDb2dVertex
 10
2800.0
 20
100.0
 30
0.0
  0
VERTEX
  5
10F
100
AcDbEntity
  8
一般
370
               5
 62
               7
100
AcDbVertex
100
AcDb2dVertex
 10
2650.0
 20
100.0
 30
0.0
  0
SEQEND
  5
110
100
AcDbEntity
  8
一般
370
               5
 62
               7
  0
POLYLINE
  5
111
100
AcDbEntity
  8
一般
370
               5
 62
               7
100
AcDb2dPolyline
 66
               1
 10
0.0
 20
0.0
 30
0.0
 70
               1
 75
               5
  0
VERTEX
  5
112
100
AcDbEntity
  8
一般
370
               5
 62
               7
100
AcDbVertex
100
AcDb2dVertex
 10
2440.0
 20
250.0
 30
0.0
  0
VERTEX
  5
113
100
AcDbEntity
  8
一般
370
               5
 62
               7
100
AcDbVertex
100
AcDb2dVertex
 10
2590.0
 20
250.0
 30
0.0
  0
VERTEX
  5
114
100
AcDbEntity
  8
一般
370
               5
 62
               7
100
AcDbVertex
100
AcDb2dVertex
 10
2590.0
 20
100.0
 30
0.0
  0
VERTEX
  5
115
100
AcDbEntity
  8
一般
370
               5
 62
               7
100
AcDbVertex
100
AcDb2dVertex
 10
2440.0
 20
100.0
 30
0.0
  0
SEQEND
  5
116
100
AcDbEntity
  8
一般
370
               5
 62
               7
  0
MTEXT
  5
117
100
AcDbEntity
  8
一般
 62
               7
100
AcDbMText
 10
2327.3760430703423
 20
244.81122685185187
 30
0.0
 40
20.211226851851851
 41
0.0
 71
               1
 72
               1
  1
    
  7
Arial
 73
               1
 44
0.9673603504928809
  0
POLYLINE
  5
118
100
AcDbEntity
  8
一般
370
               5
 62
               7
100
AcDb2dPolyline
 66
               1
 10
0.0
 20
0.0
 30
0.0
 70
               1
 75
               5
  0
VERTEX
  5
119
100
AcDbEntity
  8
一般
370
               5
 62
               7
100
AcDbVertex
100
AcDb2dVertex
 10
2230.0
 20
250.0
 30
0.0
  0
VERTEX
  5
11A
100
AcDbEntity
  8
一般
370
               5
 62
               7
100
AcDbVertex
100
AcDb2dVertex
 10
2380.0
 20
250.0
 30
0.0
  0
VERTEX
  5
11B
100
AcDbEntity
  8
一般
370
               5
 62
               7
100
AcDbVertex
100
AcDb2dVertex
 10
2380.0
 20
100.0
 30
0.0
  0
VERTEX
  5
11C
100
AcDbEntity
  8
一般
370
               5
 62
               7
100
AcDbVertex
100
AcDb2dVertex
 10
2230.0
 20
100.0
 30
0.0
  0
SEQEND
  5
11D
100
AcDbEntity
  8
一般
370
               5
 62
               7
  0
POLYLINE
  5
11E
100
AcDbEntity
  8
一般
370
               5
 62
               7
100
AcDb2dPolyline
 66
               1
 10
0.0
 20
0.0
 30
0.0
 70
               1
 75
               5
  0
VERTEX
  5
11F
100
AcDbEntity
  8
一般
370
               5
 62
               7
100
AcDbVertex
100
AcDb2dVertex
 10
2020.0
 20
250.0
 30
0.0
  0
VERTEX
  5
120
100
AcDbEntity
  8
一般
370
               5
 62
               7
100
AcDbVertex
100
AcDb2dVertex
 10
2170.0
 20
250.0
 30
0.0
  0
VERTEX
  5
121
100
AcDbEntity
  8
一般
370
               5
 62
               7
100
AcDbVertex
100
AcDb2dVertex
 10
2170.0
 20
100.0
 30
0.0
  0
VERTEX
  5
122
100
AcDbEntity
  8
一般
370
               5
 62
               7
100
AcDbVertex
100
AcDb2dVertex
 10
2020.0
 20
100.0
 30
0.0
  0
SEQEND
  5
123
100
AcDbEntity
  8
一般
370
               5
 62
               7
  0
MTEXT
  5
127
100
AcDbEntity
  8
一般
 62
               7
100
AcDbMText
 10
1896.1324865405218
 20
1850.4255112817079
 30
0.0
 40
70.739293981481481
 41
663.86751345947823
 71
               1
 72
               1
  1
 B1-K301
  7
Arial
 73
               1
 44
0.9673603504928806
  0
MTEXT
  5
128
100
AcDbEntity
  8
一般
 62
             250
100
AcDbMText
 10
1910.0
 20
1663.5329224537036
 30
0.0
 40
25.264033564814813
 41
403.45299461620721
 71
               1
 72
               1
  1
22 AUG 2009
  7
Arial (bold)
 73
               1
 44
0.9925958378970429
  0
INSERT
  5
129
100
AcDbEntity
  8
一般
 62
               7
100
AcDbBlockReference
  2
scal 1_10
 10
1543.1198996275509
 20
120.0
 30
0.0
  0
INSERT
  5
12A
100
AcDbEntity
  8
一般
 62
               7
100
AcDbBlockReference
  2
グループ-4
 10
1450.0
 20
1020.0
 30
0.0
  0
DIMENSION
  5
12B
100
AcDbEntity
  8
寸法
370
               5
  6
Continuous
 62
               7
100
AcDbDimension
  2
*D8
 10
363.30479896238603
 20
1460.0
 30
0.0
 11
528.30479896238637
 21
1460.0
 31
0.0
 71
               5
 72
               1
 41
1.0
 42
0.0
  3
T1
100
AcDbAlignedDimension
 13
693.30479896238671
 23
1390.0
 33
0.0
 14
363.30479896238603
 24
1390.0
 34
0.0
100
AcDbRotatedDimension
1001
ACAD
1000
DSTYLE
1002
{
1070
             279
1070
               2
1070
             340
1005
36
1070
             140
1040
21.717881944444446
1070
               3
1000
φ<>
1070
             147
1040
5.0
1002
}
  0
DIMENSION
  5
12C
100
AcDbEntity
  8
寸法
370
               5
  6
Continuous
 62
               7
100
AcDbDimension
  2
*D9
 10
790.0
 20
745.0
 30
0.0
 11
790.0
 21
672.5
 31
0.0
 71
               5
 72
               1
 41
1.0
 42
0.0
  3
T1
100
AcDbAlignedDimension
 13
690.0
 23
600.0
 33
0.0
 14
690.0
 24
745.0
 34
0.0
 50
90.0
100
AcDbRotatedDimension
1001
ACAD
1000
DSTYLE
1002
{
1070
             279
1070
               2
1070
             340
1005
36
1070
             140
1040
21.717881944444446
1070
             147
1040
5.0
1002
}
  0
DIMENSION
  5
12D
100
AcDbEntity
  8
寸法
370
               5
  6
Continuous
 62
               7
100
AcDbDimension
  2
*D10
 10
747.73502691896385
 20
745.0
 30
0.0
 11
747.73502691896385
 21
695.0
 31
0.0
 71
               5
 72
               1
 41
1.0
 42
0.0
  3
T1
100
AcDbAlignedDimension
 13
690.0
 23
645.0
 33
0.0
 14
690.0
 24
745.0
 34
0.0
 50
90.0
100
AcDbRotatedDimension
1001
ACAD
1000
DSTYLE
1002
{
1070
             279
1070
               2
1070
             340
1005
36
1070
             140
1040
21.717881944444446
1070
             147
1040
5.0
1002
}
  0
LINE
  5
12E
100
AcDbEntity
  8
寸法
370
               5
  6
STYLE_06
 62
               7
100
AcDbLine
 10
528.30479896238671
 20
1430.0
 30
0.0
 11
528.30479896238671
 21
530.0
 31
0.0
  0
DIMENSION
  5
12F
100
AcDbEntity
  8
寸法
370
               5
  6
Continuous
 62
               7
100
AcDbDimension
  2
*D11
 10
443.30479896238671
 20
510.0
 30
0.0
 11
528.30479896238671
 21
510.0
 31
0.0
 71
               5
 72
               1
 41
1.0
 42
0.0
  3
T1
100
AcDbAlignedDimension
 13
613.30479896238671
 23
550.0
 33
0.0
 14
443.30479896238671
 24
550.0
 34
0.0
100
AcDbRotatedDimension
1001
ACAD
1000
DSTYLE
1002
{
1070
             279
1070
               2
1070
             340
1005
36
1070
             140
1040
21.717881944444446
1070
               3
1000
φ<>
1070
             147
1040
5.0
1002
}
  0
INSERT
  5
130
100
AcDbEntity
  8
一般
 62
               7
100
AcDbBlockReference
  2
グループ-6
 10
1450.0
 20
1020.0
 30
0.0
  0
WIPEOUT
  5
131
100
AcDbEntity
  8
一般
370
              15
  6
Continuous
 62
               7
 92
        0
100
AcDbWipeout
 90
        0
 10
363.30479896238671
 20
1495.0
 30
0.0
 11
330.0
 21
0.0
 31
0.0
 12
0.0
 22
330.0
 32
0.0
 13
1.0
 23
1.0
340
0
 70
               7
280
               1
281
              50
282
              50
283
               0
360
0
 71
               2
 91
        9
 14
0.5
 24
1.303030303030303
 14
0.3535533905932738
 24
1.6565836936235765
 14
0.0
 24
1.803030303030303
 14
-0.3535533905932735
 24
1.6565836936235765
 14
-0.5
 24
1.303030303030303
 14
-0.3535533905932735
 24
0.9494769124370288
 14
0.0
 24
0.803030303030303
 14
0.3535533905932738
 24
0.9494769124370288
 14
0.5
 24
1.303030303030303
  0
CIRCLE
  5
132
100
AcDbEntity
  8
一般
370
              15
  6
Continuous
 62
               7
100
AcDbCircle
 10
528.30479896238671
 20
1230.0
 30
0.0
 40
165.0
  0
WIPEOUT
  5
133
100
AcDbEntity
  8
一般
370
              15
  6
Continuous
 62
               7
 92
        0
100
AcDbWipeout
 90
        0
 10
505.30479896238671
 20
1637.0
 30
0.0
 11
46.0
 21
0.0
 31
0.0
 12
0.0
 22
46.0
 32
0.0
 13
1.0
 23
1.0
340
0
 70
               7
280
               1
281
              50
282
              50
283
               0
360
0
 71
               2
 91
        9
 14
0.5
 24
9.3478260869565215
 14
0.3535533905932742
 24
9.7013794775497963
 14
0.0
 24
9.8478260869565215
 14
-0.3535533905932742
 24
9.7013794775497963
 14
-0.5
 24
9.3478260869565215
 14
-0.3535533905932742
 24
8.9942726963632484
 14
0.0
 24
8.8478260869565215
 14
0.3535533905932742
 24
8.9942726963632484
 14
0.5
 24
9.3478260869565215
  0
CIRCLE
  5
134
100
AcDbEntity
  8
一般
370
              15
  6
Continuous
 62
               7
100
AcDbCircle
 10
528.30479896238671
 20
1230.0
 30
0.0
 40
23.0
  0
CIRCLE
  5
135
100
AcDbEntity
  8
一般
370
               5
  6
Continuous
 62
               7
100
AcDbCircle
 10
528.30479896238671
 20
1230.0
 30
0.0
 40
35.0
  0
INSERT
  5
136
100
AcDbEntity
  8
一般
 62
               7
100
AcDbBlockReference
  2
グループ-8
 10
1450.0
 20
1020.0
 30
0.0
  0
INSERT
  5
137
100
AcDbEntity
  8
寸法
 62
               7
100
AcDbBlockReference
  2
グループ-10
 10
1450.0
 20
1020.0
 30
0.0
  0
ARC
  5
138
100
AcDbEntity
  8
一般
370
               5
  6
Continuous
 62
               7
100
AcDbCircle
 10
528.30479896238683
 20
1230.0
 30
0.0
 40
137.49999999999972
100
AcDbArc
 50
12.308331409179242
 51
167.69198418233654
  0
ARC
  5
139
100
AcDbEntity
  8
一般
370
               5
  6
Continuous
 62
               7
100
AcDbCircle
 10
528.30479896238683
 20
1230.0
 30
0.0
 40
137.49999999999966
100
AcDbArc
 50
195.10459749202326
 51
350.24544382199554
  0
MTEXT
  5
13A
100
AcDbEntity
  8
一般
 62
             250
100
AcDbMText
 10
1900.0
 20
1595.6689930555553
 30
0.0
 40
24.694444444444446
 41
180.0
 71
               1
 72
               1
  1
{\H0.8795x;\l品名　　　：}
 73
               1
 44
0.7828267384257843
  0
MTEXT
  5
13B
100
AcDbEntity
  8
一般
 62
             250
100
AcDbMText
 10
1900.0
 20
1473.6934375000001
 30
0.0
 40
24.694444444444446
 41
180.0
 71
               1
 72
               1
  1
{\H0.8795x;\l素材　　　：}
 73
               1
 44
0.7828267384257843
  0
MTEXT
  5
13C
100
AcDbEntity
  8
一般
 62
             250
100
AcDbMText
 10
1900.0
 20
1433.6934375000001
 30
0.0
 40
24.694444444444446
 41
180.0
 71
               1
 72
               1
  1
{\H0.8795x;\l色　　　　：}
 73
               1
 44
0.7828267384257843
  0
MTEXT
  5
13D
100
AcDbEntity
  8
一般
 62
             250
100
AcDbMText
 10
1900.0
 20
1393.6934375000001
 30
0.0
 40
24.694444444444446
 41
180.0
 71
               1
 72
               1
  1
{\H0.8795x;\l設置方法　：}
 73
               1
 44
0.7828267384257843
  0
MTEXT
  5
13E
100
AcDbEntity
  8
一般
 62
             250
100
AcDbMText
 10
1900.0
 20
1555.6689930555553
 30
0.0
 40
24.694444444444446
 41
180.0
 71
               1
 72
               1
  1
{\H0.8795x;\l重量　　　：}
 73
               1
 44
0.7828267384257843
  0
MTEXT
  5
13F
100
AcDbEntity
  8
一般
 62
             250
100
AcDbMText
 10
2090.0
 20
1595.6689930555553
 30
0.0
 40
21.717881944444446
 41
630.0
 71
               1
 72
               1
  1
カウンタートップ手洗器(オーバーフロー付)
  7
ＭＳ ゴシック
 73
               1
 44
0.7828267384257843
  0
MTEXT
  5
140
100
AcDbEntity
  8
一般
 62
             250
100
AcDbMText
 10
2090.0
 20
1555.6689930555553
 30
0.0
 40
21.717881944444446
 41
180.0
 71
               1
 72
               1
  1
5KG
  7
ＭＳ ゴシック
 73
               1
 44
0.7828267384257843
  0
MTEXT
  5
141
100
AcDbEntity
  8
一般
 62
             250
100
AcDbMText
 10
2090.0
 20
1473.6934375000001
 30
0.0
 40
24.694444444444446
 41
180.0
 71
               1
 72
               1
  1
{\H0.8795x;\l陶器}
 73
               1
 44
0.7828267384257843
  0
MTEXT
  5
142
100
AcDbEntity
  8
一般
 62
             250
100
AcDbMText
 10
2090.0221349174199
 20
1433.6934375000001
 30
0.0
 40
24.694444444444446
 41
180.0
 71
               1
 72
               1
  1
{\H0.8795x;\lホワイト}
 73
               1
 44
0.7828267384257843
  0
MTEXT
  5
143
100
AcDbEntity
  8
一般
 62
             250
100
AcDbMText
 10
2090.0
 20
1394.3412239583338
 30
0.0
 40
21.717881944444446
 41
410.0
 71
               1
 72
               1
  1
カウンター置\Pシリコン(クリアー)接着\P　　
  7
ＭＳ ゴシック
 73
               1
 44
0.7828267384257843
  0
MTEXT
  5
144
100
AcDbEntity
  8
一般
 62
             250
100
AcDbMText
 10
1900.0
 20
1514.5023263888888
 30
0.0
 40
21.717881944444446
 41
180.0
 71
               1
 72
               1
  1
容量　　　：
  7
ＭＳ ゴシック
 73
               1
 44
0.7828267384257843
  0
MTEXT
  5
145
100
AcDbEntity
  8
一般
 62
             250
100
AcDbMText
 10
2090.0
 20
1514.5023263888888
 30
0.0
 40
21.717881944444446
 41
180.0
 71
               1
 72
               1
  1
2L
  7
ＭＳ ゴシック
 73
               1
 44
0.7828267384257843
  0
ENDSEC
  0
SECTION
  2
OBJECTS
  0
DICTIONARY
  5
19
100
AcDbDictionary
280
               0
281
               1
  3
ACAD_GROUP
350
1A
  3
ACAD_MLINESTYLE
350
1B
  3
ACAD_LAYOUT
350
1E
  3
ACAD_PLOTSETTINGS
350
22
  3
ACAD_PLOTSTYLENAME
350
1F
  3
ACAD_WIPEOUT_VARS
350
23
  0
DICTIONARY
  5
1A
102
{ACAD_REACTORS
330
19
102
}
100
AcDbDictionary
280
               0
281
               1
  0
DICTIONARY
  5
1B
102
{ACAD_REACTORS
330
19
102
}
100
AcDbDictionary
280
               0
281
               1
  3
Standard
350
1C
  0
MLINESTYLE
  5
1C
102
{ACAD_REACTORS
330
1B
102
}
100
AcDbMlineStyle
  2
Standard
 70
               0
  3

 62
               0
 51
90.0
 52
90.0
 71
               2
 49
0.5
 62
             256
  6
ByLayer
 49
-0.5
 62
             256
  6
ByLayer
  0
ACDBDICTIONARYWDFLT
  5
1F
102
{ACAD_REACTORS
330
19
102
}
100
AcDbDictionary
281
               1
  3
Normal
350
1D
100
AcDbDictionaryWithDefault
340
1D
  0
ACDBPLACEHOLDER
  5
1D
102
{ACAD_REACTORS
330
1F
102
}
  0
LAYOUT
  5
20
102
{ACAD_REACTORS
330
1E
102
}
100
AcDbPlotSettings
  1

  2

  4

  6

 40
0.0
 41
0.0
 42
0.0
 43
0.0
 44
0.0
 45
0.0
 46
0.0
 47
0.0
 48
0.0
 49
0.0
140
0.0
141
0.0
142
1.0
143
1.0
 70
            1024
 72
               0
 73
               0
 74
               0
  7

 75
               0
147
1.0
148
0.0
149
0.0
100
AcDbLayout
  1
Model
 70
               0
 71
               0
 10
0.0
 20
0.0
 11
0.0
 21
0.0
 12
0.0
 22
0.0
 32
0.0
 14
0.0
 24
0.0
 34
0.0
 15
0.0
 25
0.0
 35
0.0
146
0.0
 13
0.0
 23
0.0
 33
0.0
 16
0.0
 26
0.0
 36
0.0
 17
0.0
 27
0.0
 37
0.0
 76
               0
330
A
331
0
345
0
346
0
  0
LAYOUT
  5
21
102
{ACAD_REACTORS
330
1E
102
}
100
AcDbPlotSettings
  1

  2

  4

  6

 40
0.0
 41
0.0
 42
0.0
 43
0.0
 44
0.0
 45
0.0
 46
0.0
 47
0.0
 48
0.0
 49
0.0
140
0.0
141
0.0
142
1.0
143
1.0
 70
               0
 72
               0
 73
               0
 74
               0
  7

 75
               0
147
1.0
148
0.0
149
0.0
100
AcDbLayout
  1
Layout1
 70
               0
 71
               0
 10
0.0
 20
0.0
 11
0.0
 21
0.0
 12
0.0
 22
0.0
 32
0.0
 14
0.0
 24
0.0
 34
0.0
 15
0.0
 25
0.0
 35
0.0
146
0.0
 13
0.0
 23
0.0
 33
0.0
 16
0.0
 26
0.0
 36
0.0
 17
0.0
 27
0.0
 37
0.0
 76
               0
330
B
331
0
345
0
346
0
  0
DICTIONARY
  5
1E
102
{ACAD_REACTORS
330
19
102
}
100
AcDbDictionary
280
               0
281
               1
  3
Layout1
350
21
  3
Model
350
20
  0
DICTIONARY
  5
22
102
{ACAD_REACTORS
330
19
102
}
100
AcDbDictionary
280
               0
281
               1
  0
WIPEOUTVARIABLES
  5
23
100
AcDbWipeoutVariables
 70
               0
  0
ENDSEC
  0
EOF
