  0
SECTION
  2
HEADER
  9
$ACADVER
  1
AC1015
  9
$ACADMAINTVER
 70
               6
  9
$DWGCODEPAGE
  3
ANSI_932
  9
$INSBASE
 10
0.0
 20
0.0
 30
0.0
  9
$EXTMIN
 10
198.65775408296759
 20
100.0
 30
-14.834305555555554
  9
$EXTMAX
 10
2800.0
 20
1870.0
 30
14.834305555555554
  9
$LIMMIN
 10
0.0
 20
0.0
  9
$LIMMAX
 10
0.0
 20
0.0
  9
$ORTHOMODE
 70
               0
  9
$REGENMODE
 70
               1
  9
$FILLMODE
 70
               1
  9
$QTEXTMODE
 70
               0
  9
$MIRRTEXT
 70
               1
  9
$LTSCALE
 40
50.799999999999997
  9
$ATTMODE
 70
               1
  9
$TEXTSIZE
 40
0.2
  9
$TRACEWID
 40
1.0
  9
$TEXTSTYLE
  7
Standard
  9
$CLAYER
  8
一般
  9
$CELTYPE
  6
Continuous
  9
$CECOLOR
 62
             256
  9
$CELTSCALE
 40
1.0
  9
$DISPSILH
 70
               0
  9
$DIMSCALE
 40
1.0
  9
$DIMASZ
 40
5.0074462890624991
  9
$DIMEXO
 40
9.9999999999999982
  9
$DIMDLI
 40
10.16
  9
$DIMRND
 40
0.0
  9
$DIMDLE
 40
0.4999999999999999
  9
$DIMEXE
 40
4.9999999999999991
  9
$DIMTP
 40
0.0
  9
$DIMTM
 40
0.0
  9
$DIMTXT
 40
0.18
  9
$DIMCEN
 40
0.0
  9
$DIMTSZ
 40
0.0
  9
$DIMTOL
 70
               0
  9
$DIMLIM
 70
               0
  9
$DIMTIH
 70
               0
  9
$DIMTOH
 70
               0
  9
$DIMSE1
 70
               0
  9
$DIMSE2
 70
               0
  9
$DIMTAD
 70
               1
  9
$DIMZIN
 70
              11
  9
$DIMBLK
  1
_DOT
  9
$DIMASO
 70
               1
  9
$DIMSHO
 70
               1
  9
$DIMPOST
  1
<>
  9
$DIMAPOST
  1
[]
  9
$DIMALT
 70
               0
  9
$DIMALTD
 70
               3
  9
$DIMALTF
 40
0.0393700787401575
  9
$DIMLFAC
 40
1.0
  9
$DIMTOFL
 70
               1
  9
$DIMTVP
 40
0.0
  9
$DIMTIX
 70
               1
  9
$DIMSOXD
 70
               0
  9
$DIMSAH
 70
               0
  9
$DIMBLK1
  1

  9
$DIMBLK2
  1

  9
$DIMSTYLE
  2
T1
  9
$DIMCLRD
 70
               0
  9
$DIMCLRE
 70
               0
  9
$DIMCLRT
 70
               0
  9
$DIMTFAC
 40
0.8
  9
$DIMGAP
 40
0.4999999999999999
  9
$DIMJUST
 70
               0
  9
$DIMSD1
 70
               0
  9
$DIMSD2
 70
               0
  9
$DIMTOLJ
 70
               1
  9
$DIMTZIN
 70
              11
  9
$DIMALTZ
 70
              15
  9
$DIMALTTZ
 70
              15
  9
$DIMUPT
 70
               0
  9
$DIMDEC
 70
               1
  9
$DIMTDEC
 70
               1
  9
$DIMALTU
 70
               4
  9
$DIMALTTD
 70
               2
  9
$DIMTXSTY
  7
Standard
  9
$DIMAUNIT
 70
               0
  9
$DIMADEC
 70
               2
  9
$DIMALTRND
 40
0.0
  9
$DIMAZIN
 70
               0
  9
$DIMDSEP
 70
              46
  9
$DIMATFIT
 70
               0
  9
$DIMFRAC
 70
               2
  9
$DIMLDRBLK
  1

  9
$DIMLUNIT
 70
               2
  9
$DIMLWD
 70
              -2
  9
$DIMLWE
 70
              -2
  9
$DIMTMOVE
 70
               0
  9
$LUNITS
 70
               2
  9
$LUPREC
 70
               4
  9
$SKETCHINC
 40
0.1
  9
$FILLETRAD
 40
0.0
  9
$AUNITS
 70
               0
  9
$AUPREC
 70
               0
  9
$MENU
  1
acad
  9
$ELEVATION
 40
0.0
  9
$PELEVATION
 40
0.0
  9
$THICKNESS
 40
0.0
  9
$LIMCHECK
 70
               0
  9
$CHAMFERA
 40
0.0
  9
$CHAMFERB
 40
0.0
  9
$CHAMFERC
 40
0.0
  9
$CHAMFERD
 40
0.0
  9
$SKPOLY
 70
               0
  9
$TDCREATE
 40
2455066.624224537
  9
$TDUCREATE
 40
0.000000000
  9
$TDUPDATE
 40
2455066.624224537
  9
$TDUUPDATE
 40
0.000000000
  9
$TDINDWG
 40
0.0000000000
  9
$TDUSRTIMER
 40
0.0000000000
  9
$USRTIMER
 70
               1
  9
$ANGBASE
 50
0.0
  9
$ANGDIR
 70
               0
  9
$PDMODE
 70
               1
  9
$PDSIZE
 40
-2.0
  9
$PLINEWID
 40
0.0
  9
$SPLFRAME
 70
               0
  9
$SPLINETYPE
 70
               6
  9
$SPLINESEGS
 70
               8
  9
$HANDSEED
  5
13B
  9
$SURFTAB1
 70
               6
  9
$SURFTAB2
 70
               6
  9
$SURFTYPE
 70
               6
  9
$SURFU
 70
               6
  9
$SURFV
 70
               6
  9
$UCSBASE
  2

  9
$UCSNAME
  2

  9
$UCSORG
 10
0.0
 20
0.0
 30
0.0
  9
$UCSXDIR
 10
1.0
 20
0.0
 30
0.0
  9
$UCSYDIR
 10
0.0
 20
1.0
 30
0.0
  9
$UCSORTHOREF
  2

  9
$UCSORTHOVIEW
 70
               0
  9
$UCSORGTOP
 10
0.0
 20
0.0
 30
0.0
  9
$UCSORGBOTTOM
 10
0.0
 20
0.0
 30
0.0
  9
$UCSORGLEFT
 10
0.0
 20
0.0
 30
0.0
  9
$UCSORGRIGHT
 10
0.0
 20
0.0
 30
0.0
  9
$UCSORGFRONT
 10
0.0
 20
0.0
 30
0.0
  9
$UCSORGBACK
 10
0.0
 20
0.0
 30
0.0
  9
$PUCSBASE
  2

  9
$PUCSNAME
  2

  9
$PUCSORG
 10
0.0
 20
0.0
 30
0.0
  9
$PUCSXDIR
 10
1.0
 20
0.0
 30
0.0
  9
$PUCSYDIR
 10
0.0
 20
1.0
 30
0.0
  9
$PUCSORTHOREF
  2

  9
$PUCSORTHOVIEW
 70
               0
  9
$PUCSORGTOP
 10
0.0
 20
0.0
 30
0.0
  9
$PUCSORGBOTTOM
 10
0.0
 20
0.0
 30
0.0
  9
$PUCSORGLEFT
 10
0.0
 20
0.0
 30
0.0
  9
$PUCSORGRIGHT
 10
0.0
 20
0.0
 30
0.0
  9
$PUCSORGFRONT
 10
0.0
 20
0.0
 30
0.0
  9
$PUCSORGBACK
 10
0.0
 20
0.0
 30
0.0
  9
$USERI1
 70
               0
  9
$USERI2
 70
               0
  9
$USERI3
 70
               0
  9
$USERI4
 70
               0
  9
$USERI5
 70
               0
  9
$USERR1
 40
0.0
  9
$USERR2
 40
0.0
  9
$USERR3
 40
0.0
  9
$USERR4
 40
0.0
  9
$USERR5
 40
0.0
  9
$WORLDVIEW
 70
               1
  9
$SHADEDGE
 70
               3
  9
$SHADEDIF
 70
              70
  9
$TILEMODE
 70
               1
  9
$MAXACTVP
 70
              64
  9
$PINSBASE
 10
0.0
 20
0.0
 30
0.0
  9
$PLIMCHECK
 70
               0
  9
$PEXTMIN
 10
1.0000000000000000E+20
 20
1.0000000000000000E+20
 30
1.0000000000000000E+20
  9
$PEXTMAX
 10
-1.0000000000000000E+20
 20
-1.0000000000000000E+20
 30
-1.0000000000000000E+20
  9
$PLIMMIN
 10
0.0
 20
0.0
  9
$PLIMMAX
 10
12.0
 20
9.0
  9
$UNITMODE
 70
               0
  9
$VISRETAIN
 70
               0
  9
$PLINEGEN
 70
               1
  9
$PSLTSCALE
 70
               0
  9
$TREEDEPTH
 70
            3020
  9
$CMLSTYLE
  2
Standard
  9
$CMLJUST
 70
               0
  9
$CMLSCALE
 40
1.0
  9
$PROXYGRAPHICS
 70
               0
  9
$MEASUREMENT
 70
               1
  9
$CELWEIGHT
370
               0
  9
$ENDCAPS
280
               0
  9
$JOINSTYLE
280
               0
  9
$LWDISPLAY
290
               1
  9
$INSUNITS
 70
               4
  9
$HYPERLINKBASE
  1

  9
$STYLESHEET
  1

  9
$XEDIT
290
               1
  9
$CEPSNTYPE
380
               0
  9
$PSTYLEMODE
290
               1
  9
$FINGERPRINTGUID
  2

  9
$VERSIONGUID
  2

  9
$EXTNAMES
290
               1
  9
$PSVPSCALE
 40
0.0
  0
ENDSEC
  0
SECTION
  2
CLASSES
  0
CLASS
  1
LWPOLYLINE
  2
AcDbPolyline
  3
AutoCAD 2000
 90
    32768
280
               0
281
               1
  0
CLASS
  1
IMAGE
  2
AcDbRasterImage
  3
ISM
 90
    32895
280
               0
281
               1
  0
CLASS
  1
OLE2FRAME
  2
AcDbOle2Frame
  3
AutoCAD 2000
 90
    32768
280
               0
281
               1
  0
CLASS
  1
HATCH
  2
AcDbHatch
  3
AutoCAD 2000
 90
        0
280
               0
281
               1
  0
CLASS
  1
DICTIONARYVAR
  2
AcDbDictionaryVar
  3
AutoCAD 2000
 90
    32768
280
               0
281
               0
  0
CLASS
  1
RASTERVARIABLES
  2
AcDbRasterVariables
  3
ISM
 90
    32768
280
               0
281
               0
  0
CLASS
  1
IMAGEDEF
  2
AcDbRasterImageDef
  3
ISM
 90
    32768
280
               0
281
               0
  0
CLASS
  1
IMAGEDEF_REACTOR
  2
AcDbRasterImageDefReactor
  3
ISM
 90
    32769
280
               0
281
               0
  0
CLASS
  1
IDBUFFER
  2
AcDbIdBuffer
  3
AutoCAD 2000
 90
    32768
280
               0
281
               0
  0
CLASS
  1
SPATIAL_FILTER
  2
AcDbSpatialFilter
  3
AutoCAD 2000
 90
    32768
280
               0
281
               0
  0
CLASS
  1
XRECORD
  2
AcDbXrecord
  3
AutoCAD 2000
 90
    32768
280
               0
281
               0
  0
CLASS
  1
SORTENTSTABLE
  2
AcDbSortentsTable
  3
AutoCAD 2000
 90
    32768
280
               0
281
               0
  0
CLASS
  1
LAYER_INDEX
  2
AcDbLayerIndex
  3
AutoCAD 2000
 90
    32768
280
               0
281
               0
  0
CLASS
  1
SPATIAL_INDEX
  2
AcDbSpatialIndex
  3
AutoCAD 2000
 90
    32768
280
               0
281
               0
  0
CLASS
  1
OBJECT_PTR
  2
CAseDLPNTableRecord
  3
"ASE-LPNTableRecord"
 90
    32769
280
               0
281
               0
  0
CLASS
  1
LAYOUT
  2
AcDbLayout
  3
AutoCAD 2000
 90
        0
280
               0
281
               0
  0
CLASS
  1
PLOTSETTINGS
  2
AcDbPlotSettings
  3
AutoCAD 2000
 90
    32768
280
               0
281
               0
  0
CLASS
  1
ACDBDICTIONARYWDFLT
  2
AcDbDictionaryWithDefault
  3
AutoCAD 2000
 90
        0
280
               0
281
               0
  0
CLASS
  1
ACDBPLACEHOLDER
  2
AcDbPlaceHolder
  3
AutoCAD 2000
 90
        0
280
               0
281
               0
  0
CLASS
  1
VBA_PROJECT
  2
AcDbVbaProject
  3
acadvba
 90
    32768
280
               0
281
               0
  0
CLASS
  1
WIPEOUT
  2
AcDbWipeout
  3
WipeOut|AutoCAD Express Tool|expresstools@autodesk.com
 90
      127
280
               0
281
               1
  0
CLASS
  1
WIPEOUTVARIABLES
  2
AcDbWipeoutVariables
  3
WipeOut|AutoCAD Express Tool|expresstools@autodesk.com
 90
        0
280
               0
281
               0
  0
CLASS
  1
RTEXT
  2
RText
  3
RText|AutoCAD Express Tool|expresstools@autodesk.com
 90
    32768
280
               0
281
               1
  0
CLASS
  1
ARCALIGNEDTEXT
  2
AcDbArcAlignedText
  3
ATEXT|AutoCAD Express Tool|expresstools@autodesk.com
 90
    32768
280
               0
281
               1
  0
ENDSEC
  0
SECTION
  2
TABLES
  0
TABLE
  2
VPORT
  5
7
100
AcDbSymbolTable
 70
               1
  0
VPORT
  5
15
100
AcDbSymbolTableRecord
100
AcDbViewportTableRecord
  2
*ACTIVE
 70
               0
 10
0.0
 20
0.0
 11
1.0
 21
1.0
 12
1499.3288770414838
 22
985.0
 13
0.0
 23
0.0
 14
1.0
 24
1.0
 15
0.0
 25
0.0
 16
0.0
 26
0.0
 36
1.0
 17
0.0
 27
0.0
 37
0.0
 40
1770.0
 41
0.688564
 42
50.0
 43
0.0
 44
0.0
 50
0.0
 51
0.0
 71
               0
 72
            2000
 73
               1
 74
               1
 75
               0
 76
               0
 77
               0
 78
               0
281
               0
 65
               0
110
0.0
120
0.0
130
0.0
111
1.0
121
0.0
131
0.0
112
0.0
122
1.0
132
0.0
345
0
346
0
 79
               0
146
0.0
  0
ENDTAB
  0
TABLE
  2
LTYPE
  5
4
100
AcDbSymbolTable
 70
              13
  0
LTYPE
  5
11
100
AcDbSymbolTableRecord
100
AcDbLinetypeTableRecord
  2
ByBlock
 70
              64
  3

 72
              65
 73
               0
 40
0.0
  0
LTYPE
  5
12
100
AcDbSymbolTableRecord
100
AcDbLinetypeTableRecord
  2
ByLayer
 70
              64
  3

 72
              65
 73
               0
 40
0.0
  0
LTYPE
  5
13
100
AcDbSymbolTableRecord
100
AcDbLinetypeTableRecord
  2
Continuous
 70
              64
  3
Solid line
 72
              65
 73
               0
 40
0.0
  0
LTYPE
  5
31
100
AcDbSymbolTableRecord
100
AcDbLinetypeTableRecord
  2
STYLE_01
 70
               0
  3

 72
              65
 73
               2
 40
0.41664
 49
0.20828
 74
               0
 49
-0.20836
 74
               0
  0
LTYPE
  5
32
100
AcDbSymbolTableRecord
100
AcDbLinetypeTableRecord
  2
STYLE_02
 70
               0
  3

 72
              65
 73
               2
 40
0.6944250000000001
 49
0.48607
 74
               0
 49
-0.2083550000000001
 74
               0
  0
LTYPE
  5
33
100
AcDbSymbolTableRecord
100
AcDbLinetypeTableRecord
  2
STYLE_03
 70
               0
  3

 72
              65
 73
               2
 40
1.25
 49
1.0416400000000001
 74
               0
 49
-0.2083599999999999
 74
               0
  0
LTYPE
  5
34
100
AcDbSymbolTableRecord
100
AcDbLinetypeTableRecord
  2
STYLE_04
 70
               0
  3

 72
              65
 73
               2
 40
1.5277099999999999
 49
1.3194249999999998
 74
               0
 49
-0.208285
 74
               0
  0
LTYPE
  5
35
100
AcDbSymbolTableRecord
100
AcDbLinetypeTableRecord
  2
STYLE_05
 70
               0
  3

 72
              65
 73
               2
 40
0.20828
 49
0.069425
 74
               0
 49
-0.138855
 74
               0
  0
LTYPE
  5
36
100
AcDbSymbolTableRecord
100
AcDbLinetypeTableRecord
  2
STYLE_06
 70
               0
  3

 72
              65
 73
               4
 40
1.0416400000000001
 49
0.625
 74
               0
 49
-0.20828
 74
               0
 49
0.06943
 74
               0
 49
-0.13893
 74
               0
  0
LTYPE
  5
37
100
AcDbSymbolTableRecord
100
AcDbLinetypeTableRecord
  2
STYLE_07
 70
               0
  3

 72
              65
 73
               6
 40
1.875
 49
0.625
 74
               0
 49
-0.20828
 74
               0
 49
0.6250000000000001
 74
               0
 49
-0.2083599999999999
 74
               0
 49
0.06943
 74
               0
 49
-0.1389299999999999
 74
               0
  0
LTYPE
  5
38
100
AcDbSymbolTableRecord
100
AcDbLinetypeTableRecord
  2
STYLE_08
 70
               0
  3

 72
              65
 73
               6
 40
1.25
 49
0.625
 74
               0
 49
-0.20828
 74
               0
 49
0.06943
 74
               0
 49
-0.13893
 74
               0
 49
0.0694299999999999
 74
               0
 49
-0.13893
 74
               0
  0
LTYPE
  5
39
100
AcDbSymbolTableRecord
100
AcDbLinetypeTableRecord
  2
STYLE_09
 70
               0
  3

 72
              65
 73
               4
 40
5.0
 49
3.75
 74
               0
 49
-0.2777849999999998
 74
               0
 49
0.6944300000000003
 74
               0
 49
-0.2777849999999998
 74
               0
  0
LTYPE
  5
3A
100
AcDbSymbolTableRecord
100
AcDbLinetypeTableRecord
  2
STYLE_10
 70
               0
  3

 72
              65
 73
               6
 40
5.9375
 49
3.75
 74
               0
 49
-0.2777849999999998
 74
               0
 49
0.6944300000000003
 74
               0
 49
-0.2777849999999998
 74
               0
 49
0.625
 74
               0
 49
-0.3125
 74
               0
  0
ENDTAB
  0
TABLE
  2
LAYER
  5
2
100
AcDbSymbolTable
 70
               4
  0
LAYER
  5
14
100
AcDbSymbolTableRecord
100
AcDbLayerTableRecord
  2
0
 70
               0
 62
               7
  6
Continuous
290
               1
370
              -3
390
1D
  0
LAYER
  5
3B
100
AcDbSymbolTableRecord
100
AcDbLayerTableRecord
  2
Defpoints
 70
               0
 62
               7
  6
Continuous
290
               0
370
              -3
390
1D
  0
LAYER
  5
3C
100
AcDbSymbolTableRecord
100
AcDbLayerTableRecord
  2
一般
 70
               0
 62
               7
  6
Continuous
290
               1
370
               5
390
1D
  0
LAYER
  5
3D
100
AcDbSymbolTableRecord
100
AcDbLayerTableRecord
  2
寸法
 70
               0
 62
               7
  6
Continuous
290
               1
370
               5
390
1D
  0
ENDTAB
  0
TABLE
  2
STYLE
  5
3
100
AcDbSymbolTable
 70
               4
  0
STYLE
  5
17
100
AcDbSymbolTableRecord
100
AcDbTextStyleTableRecord
  2
Standard
 70
               0
 40
0.0
 41
1.0
 50
0.0
 71
               0
 42
0.0
  3
txt
  4
BIGFONT.SHX
  0
STYLE
  5
2E
100
AcDbSymbolTableRecord
100
AcDbTextStyleTableRecord
  2
Arial
 70
               0
 40
0.0
 41
1.0
 50
0.0
 71
               0
 42
0.0
  3

  4
Arial
1001
ACAD
1000
Arial
1071
        0
  0
STYLE
  5
2F
100
AcDbSymbolTableRecord
100
AcDbTextStyleTableRecord
  2
Arial (bold)
 70
               0
 40
0.0
 41
1.0
 50
0.0
 71
               0
 42
0.0
  3

  4
Arial
1001
ACAD
1000
Arial
1071
 33554432
  0
STYLE
  5
30
100
AcDbSymbolTableRecord
100
AcDbTextStyleTableRecord
  2
ＭＳ ゴシック
 70
               0
 40
0.0
 41
1.0
 50
0.0
 71
               0
 42
0.0
  3

  4
ＭＳ ゴシック
1001
ACAD
1000
ＭＳ ゴシック
1071
        0
  0
ENDTAB
  0
TABLE
  2
VIEW
  5
5
100
AcDbSymbolTable
 70
               0
  0
ENDTAB
  0
TABLE
  2
UCS
  5
6
100
AcDbSymbolTable
 70
               0
  0
ENDTAB
  0
TABLE
  2
APPID
  5
8
100
AcDbSymbolTable
 70
               1
  0
APPID
  5
16
100
AcDbSymbolTableRecord
100
AcDbRegAppTableRecord
  2
ACAD
 70
               0
  0
ENDTAB
  0
TABLE
  2
DIMSTYLE
  5
9
100
AcDbSymbolTable
 70
               3
100
AcDbDimStyleTable
 71
               0
  0
DIMSTYLE
105
18
100
AcDbSymbolTableRecord
100
AcDbDimStyleTableRecord
  2
Standard
 70
               0
  3

  4

 40
1.0
 41
0.18
 42
0.0625
 43
0.38
 44
0.18
 45
0.0
 46
0.0
 47
0.0
 48
0.0
 71
               0
 72
               0
 73
               1
 74
               1
 75
               0
 76
               0
 77
               0
 78
               0
 79
               0
140
0.18
141
0.09
142
0.0
143
25.399999999999999
144
1.0
145
0.0
146
1.0
147
0.09
148
0.0
170
               0
171
               2
172
               0
173
               0
174
               0
175
               0
176
               0
177
               0
178
               0
179
               0
271
               4
272
               4
273
               2
274
               2
275
               0
276
               0
277
               2
278
              46
279
               0
280
               0
281
               0
282
               0
283
               1
284
               0
285
               0
286
               0
288
               0
340
17
341
0
342
0
343
0
344
0
371
              -2
372
              -2
  0
DIMSTYLE
105
4D
100
AcDbSymbolTableRecord
100
AcDbDimStyleTableRecord
  2
kasumatamu
 70
               0
  3
<>
  4
[]
 40
1.0
 41
5.0074462890624991
 42
9.9999999999999982
 43
10.16
 44
4.9999999999999991
 45
0.0
 46
0.4999999999999999
 47
0.0
 48
0.0
 71
               0
 72
               0
 73
               0
 74
               0
 75
               0
 76
               0
 77
               1
 78
              11
 79
               0
140
0.18
141
0.0
142
0.0
143
0.0393700787401575
144
1.0
145
0.0
146
0.8
147
0.4999999999999999
148
0.0
170
               0
171
               3
172
               1
173
               0
174
               1
175
               0
176
               0
177
               0
178
               0
179
               2
271
               1
272
               1
273
               4
274
               2
275
               0
276
               2
277
               2
278
              46
279
               0
280
               0
281
               0
282
               0
283
               1
284
              11
285
              15
286
              15
288
               0
340
17
341
46
342
3E
343
0
344
0
371
              -2
372
              -2
  0
DIMSTYLE
105
4E
100
AcDbSymbolTableRecord
100
AcDbDimStyleTableRecord
  2
T1
 70
               0
  3
<>
  4
[]
 40
1.0
 41
5.0074462890624991
 42
9.9999999999999982
 43
10.16
 44
4.9999999999999991
 45
0.0
 46
0.4999999999999999
 47
0.0
 48
0.0
 71
               0
 72
               0
 73
               0
 74
               0
 75
               0
 76
               0
 77
               1
 78
              11
 79
               0
140
0.18
141
0.0
142
0.0
143
0.0393700787401575
144
1.0
145
0.0
146
0.8
147
0.4999999999999999
148
0.0
170
               0
171
               3
172
               1
173
               0
174
               1
175
               0
176
               0
177
               0
178
               0
179
               2
271
               1
272
               1
273
               4
274
               2
275
               0
276
               2
277
               2
278
              46
279
               0
280
               0
281
               0
282
               0
283
               1
284
              11
285
              15
286
              15
288
               0
340
17
341
46
342
3E
343
0
344
0
371
              -2
372
              -2
  0
ENDTAB
  0
TABLE
  2
BLOCK_RECORD
  5
1
100
AcDbSymbolTable
 70
              12
  0
BLOCK_RECORD
  5
A
100
AcDbSymbolTableRecord
100
AcDbBlockTableRecord
  2
*MODEL_SPACE
340
20
  0
BLOCK_RECORD
  5
B
100
AcDbSymbolTableRecord
100
AcDbBlockTableRecord
  2
*PAPER_SPACE
340
21
  0
BLOCK_RECORD
  5
3E
100
AcDbSymbolTableRecord
100
AcDbBlockTableRecord
  2
_DOT
340
0
  0
BLOCK_RECORD
  5
46
100
AcDbSymbolTableRecord
100
AcDbBlockTableRecord
  2
VW_EMPTYARROW
340
0
  0
BLOCK_RECORD
  5
24
100
AcDbSymbolTableRecord
100
AcDbBlockTableRecord
  2
グループ
340
0
102
{BLKREFS
331
5C
102
}
  0
BLOCK_RECORD
  5
25
100
AcDbSymbolTableRecord
100
AcDbBlockTableRecord
  2
scal 1_10
340
0
102
{BLKREFS
331
E9
102
}
  0
BLOCK_RECORD
  5
26
100
AcDbSymbolTableRecord
100
AcDbBlockTableRecord
  2
*D4
340
0
  0
BLOCK_RECORD
  5
27
100
AcDbSymbolTableRecord
100
AcDbBlockTableRecord
  2
*D5
340
0
  0
BLOCK_RECORD
  5
28
100
AcDbSymbolTableRecord
100
AcDbBlockTableRecord
  2
*D6
340
0
  0
BLOCK_RECORD
  5
29
100
AcDbSymbolTableRecord
100
AcDbBlockTableRecord
  2
グループ-1
340
0
102
{BLKREFS
331
123
102
}
  0
BLOCK_RECORD
  5
2A
100
AcDbSymbolTableRecord
100
AcDbBlockTableRecord
  2
*D8
340
0
  0
BLOCK_RECORD
  5
2B
100
AcDbSymbolTableRecord
100
AcDbBlockTableRecord
  2
*D9
340
0
  0
BLOCK_RECORD
  5
2C
100
AcDbSymbolTableRecord
100
AcDbBlockTableRecord
  2
*D10
340
0
  0
BLOCK_RECORD
  5
2D
100
AcDbSymbolTableRecord
100
AcDbBlockTableRecord
  2
*D11
340
0
  0
ENDTAB
  0
ENDSEC
  0
SECTION
  2
BLOCKS
  0
BLOCK
  5
D
100
AcDbEntity
  8
0
100
AcDbBlockBegin
  2
*MODEL_SPACE
 70
               0
 10
0.0
 20
0.0
 30
0.0
  3
*MODEL_SPACE
  1

  0
ENDBLK
  5
E
100
AcDbEntity
  8
0
100
AcDbBlockEnd
  0
BLOCK
  5
F
100
AcDbEntity
 67
               1
  8
0
100
AcDbBlockBegin
  2
*PAPER_SPACE
 70
               0
 10
0.0
 20
0.0
 30
0.0
  3
*PAPER_SPACE
  1

  0
ENDBLK
  5
10
100
AcDbEntity
 67
               1
  8
0
100
AcDbBlockEnd
  0
BLOCK
  5
3F
100
AcDbEntity
  8
0
100
AcDbBlockBegin
  2
_DOT
 70
               0
 10
0.0
 20
0.0
 30
0.0
  3
_DOT
  1

  0
POLYLINE
  5
40
100
AcDbEntity
  8
0
370
              -2
  6
ByBlock
 62
               0
100
AcDb2dPolyline
 66
               1
 10
0.0
 20
0.0
 30
0.0
 70
               1
 40
0.5
 41
0.5
  0
VERTEX
  5
41
100
AcDbEntity
  8
0
370
              -2
  6
ByBlock
 62
               0
100
AcDbVertex
100
AcDb2dVertex
 10
-0.25
 20
0.0
 30
0.0
 42
1.0
  0
VERTEX
  5
42
100
AcDbEntity
  8
0
370
              -2
  6
ByBlock
 62
               0
100
AcDbVertex
100
AcDb2dVertex
 10
0.25
 20
0.0
 30
0.0
 42
1.0
  0
SEQEND
  5
43
100
AcDbEntity
  8
0
  0
LINE
  5
44
100
AcDbEntity
  8
0
370
              -2
  6
ByBlock
 62
               0
100
AcDbLine
 10
-0.5
 20
0.0
 30
0.0
 11
-1.0
 21
0.0
 31
0.0
  0
ENDBLK
  5
45
100
AcDbEntity
  8
0
100
AcDbBlockEnd
  0
BLOCK
  5
47
100
AcDbEntity
  8
0
370
              -2
  6
ByBlock
 62
               0
100
AcDbBlockBegin
  2
VW_EMPTYARROW
 70
               0
 10
0.0
 20
0.0
 30
0.0
  3
VW_EMPTYARROW
  1

  0
LINE
  5
48
100
AcDbEntity
  8
0
370
              -2
  6
ByBlock
 62
               0
100
AcDbLine
 10
0.0
 20
0.0
 30
0.0
 11
-1.0
 21
0.0
 31
0.0
  0
LINE
  5
49
100
AcDbEntity
  8
0
370
              -2
  6
ByBlock
 62
               0
100
AcDbLine
 10
0.0
 20
0.0
 30
0.0
 11
-0.9921874999999999
 21
-0.1749494261716802
 31
0.0
  0
LINE
  5
4A
100
AcDbEntity
  8
0
370
              -2
  6
ByBlock
 62
               0
100
AcDbLine
 10
0.0
 20
0.0
 30
0.0
 11
-0.9921874999999999
 21
0.17494942617168
 31
0.0
  0
LINE
  5
4B
100
AcDbEntity
  8
0
370
              -2
  6
ByBlock
 62
               0
100
AcDbLine
 10
-0.9921874999999999
 20
-0.1749494261716802
 30
0.0
 11
-0.9921874999999999
 21
0.17494942617168
 31
0.0
  0
ENDBLK
  5
4C
100
AcDbEntity
  8
0
100
AcDbBlockEnd
  0
BLOCK
  5
4F
100
AcDbEntity
  8
一般
100
AcDbBlockBegin
  2
グループ
 70
               0
 10
0.0
 20
0.0
 30
0.0
  3
グループ
  1

  0
MTEXT
  5
50
100
AcDbEntity
  8
一般
 62
               9
100
AcDbMText
 10
-126.88010037244908
 20
13.945972804042416
 30
0.0
 40
16.288411458333332
 41
30.0
 71
               1
 72
               1
  1
0
  7
ＭＳ ゴシック
 73
               1
 44
0.7828267384257843
  0
MTEXT
  5
51
100
AcDbEntity
  8
一般
 62
               9
100
AcDbMText
 10
-38.228066425365569
 20
12.639448705947533
 30
0.0
 40
16.288411458333332
 41
40.0
 71
               1
 72
               1
  1
100
  7
ＭＳ ゴシック
 73
               1
 44
0.7828267384257843
  0
LINE
  5
52
100
AcDbEntity
  8
一般
370
              15
  6
Continuous
 62
               8
100
AcDbLine
 10
-23.119899627550922
 20
-5.8608946790423033
 30
0.0
 11
-23.119899627550922
 21
-15.860894679042303
 31
0.0
  0
MTEXT
  5
53
100
AcDbEntity
  8
一般
 62
               9
100
AcDbMText
 10
51.771933574634431
 20
12.639448705947533
 30
0.0
 40
16.288411458333332
 41
75.108166797814647
 71
               1
 72
               1
  1
200mm
  7
ＭＳ ゴシック
 73
               1
 44
0.7828267384257843
  0
POLYLINE
  5
54
100
AcDbEntity
  8
一般
370
              15
  6
Continuous
 62
               9
100
AcDb2dPolyline
 66
               1
 10
0.0
 20
0.0
 30
0.0
 75
               5
  0
VERTEX
  5
55
100
AcDbEntity
  8
一般
370
              15
  6
Continuous
 62
               9
100
AcDbVertex
100
AcDb2dVertex
 10
-123.11989962755092
 20
-5.8608946790423033
 30
0.0
  0
VERTEX
  5
56
100
AcDbEntity
  8
一般
370
              15
  6
Continuous
 62
               9
100
AcDbVertex
100
AcDb2dVertex
 10
-123.11989962755092
 20
-15.860894679042303
 30
0.0
  0
VERTEX
  5
57
100
AcDbEntity
  8
一般
370
              15
  6
Continuous
 62
               9
100
AcDbVertex
100
AcDb2dVertex
 10
76.880100372449078
 20
-15.860894679042303
 30
0.0
  0
VERTEX
  5
58
100
AcDbEntity
  8
一般
370
              15
  6
Continuous
 62
               9
100
AcDbVertex
100
AcDb2dVertex
 10
76.880100372449078
 20
-5.8608946790423033
 30
0.0
  0
SEQEND
  5
59
100
AcDbEntity
  8
一般
370
              15
  6
Continuous
 62
               9
  0
ENDBLK
  5
5A
100
AcDbEntity
  8
一般
100
AcDbBlockEnd
  0
BLOCK
  5
5B
100
AcDbEntity
  8
一般
100
AcDbBlockBegin
  2
scal 1_10
 70
               0
 10
0.0
 20
0.0
 30
0.0
  3
scal 1_10
  1

  0
INSERT
  5
5C
100
AcDbEntity
  8
一般
 62
               7
100
AcDbBlockReference
  2
グループ
 10
0.0
 20
0.0
 30
0.0
  0
ENDBLK
  5
5D
100
AcDbEntity
  8
一般
100
AcDbBlockEnd
  0
BLOCK
  5
5E
100
AcDbEntity
  8
寸法
100
AcDbBlockBegin
  2
*D4
 70
               1
 10
0.0
 20
0.0
 30
0.0
  3
*D4
  1

  0
LINE
  5
5F
100
AcDbEntity
  8
寸法
370
              -2
  6
Continuous
 62
               0
100
AcDbLine
 10
203.65775408296759
 20
1608.3126289866427
 30
0.0
 11
203.65775408296759
 21
1673.3126289866427
 31
0.0
  0
LINE
  5
60
100
AcDbEntity
  8
寸法
370
              -2
  6
Continuous
 62
               0
100
AcDbLine
 10
618.65775408296759
 20
1608.3126289866427
 30
0.0
 11
618.65775408296759
 21
1673.3126289866427
 31
0.0
  0
LINE
  5
61
100
AcDbEntity
  8
寸法
370
              -2
  6
Continuous
 62
               0
100
AcDbLine
 10
198.65775408296759
 20
1668.3126289866427
 30
0.0
 11
203.65775408296759
 21
1668.3126289866427
 31
0.0
  0
LINE
  5
62
100
AcDbEntity
  8
寸法
370
              -2
  6
Continuous
 62
               0
100
AcDbLine
 10
618.65775408296759
 20
1668.3126289866427
 30
0.0
 11
623.65775408296759
 21
1668.3126289866427
 31
0.0
  0
LINE
  5
63
100
AcDbEntity
  8
寸法
370
              -2
  6
Continuous
 62
               0
100
AcDbLine
 10
203.65775408296759
 20
1668.3126289866427
 30
0.0
 11
618.65775408296759
 21
1668.3126289866427
 31
0.0
  0
CIRCLE
  5
64
102
{ACAD_REACTORS
330
65
102
}
100
AcDbEntity
  8
寸法
370
              -2
  6
Continuous
 62
               0
100
AcDbCircle
 10
203.65775408296759
 20
1668.3126289866427
 30
0.0
 40
2.50372314453125
  0
HATCH
  5
65
100
AcDbEntity
  8
寸法
370
              -2
  6
Continuous
 62
               0
100
AcDbHatch
 10
0.0
 20
0.0
 30
0.0
210
0.0
220
0.0
230
1.0
  2
SOLID
 70
               1
 71
               1
 91
        1
 92
        1
 93
        1
 72
               2
 10
203.65775408296759
 20
1668.3126289866427
 40
2.50372314453125
 50
0.0
 51
360.0
 73
               0
 97
        1
330
64
 75
               0
 76
               1
 98
        1
 10
0.0
 20
0.0
  0
CIRCLE
  5
66
102
{ACAD_REACTORS
330
67
102
}
100
AcDbEntity
  8
寸法
370
              -2
  6
Continuous
 62
               0
100
AcDbCircle
 10
618.65775408296759
 20
1668.3126289866427
 30
0.0
 40
2.50372314453125
  0
HATCH
  5
67
100
AcDbEntity
  8
寸法
370
              -2
  6
Continuous
 62
               0
100
AcDbHatch
 10
0.0
 20
0.0
 30
0.0
210
0.0
220
0.0
230
1.0
  2
SOLID
 70
               1
 71
               1
 91
        1
 92
        1
 93
        1
 72
               2
 10
618.65775408296759
 20
1668.3126289866427
 40
2.50372314453125
 50
0.0
 51
360.0
 73
               0
 97
        1
330
66
 75
               0
 76
               1
 98
        1
 10
0.0
 20
0.0
  0
WIPEOUT
  5
68
100
AcDbEntity
  8
寸法
370
              -2
  6
Continuous
 62
               0
 92
        0
100
AcDbWipeout
 90
        0
 10
389.99108741630084
 20
2103.3126289866427
 30
0.0
 11
42.333333333333371
 21
0.0
 31
0.0
 12
0.0
 22
42.333333333333371
 32
0.0
 13
1.0
 23
1.0
340
0
 70
               7
280
               1
281
              50
282
              50
283
               0
360
0
 71
               2
 91
        5
 14
-0.5
 24
10.657480314960621
 14
0.5
 24
10.657480314960621
 14
0.5
 24
9.9908136482939565
 14
-0.5
 24
9.9908136482939565
 14
-0.5
 24
10.657480314960621
  0
MTEXT
  5
69
100
AcDbEntity
  8
寸法
 62
               0
100
AcDbMText
 10
389.99108741630084
 20
1698.9816220421983
 30
0.0
 40
24.694444444444446
 41
0.0
 71
               1
 72
               1
  1
{\H0.8795x;\l415}
 73
               1
 44
0.7828267384257843
  0
POINT
  5
6A
100
AcDbEntity
  8
Defpoints
370
               0
 62
               0
100
AcDbPoint
 10
618.65775408296759
 20
1598.3126289866427
 30
0.0
  0
POINT
  5
6B
100
AcDbEntity
  8
Defpoints
370
               0
 62
               0
100
AcDbPoint
 10
203.65775408296759
 20
1598.3126289866427
 30
0.0
  0
POINT
  5
6C
100
AcDbEntity
  8
Defpoints
370
               0
 62
               0
100
AcDbPoint
 10
203.65775408296759
 20
1668.3126289866427
 30
0.0
  0
ENDBLK
  5
6D
100
AcDbEntity
  8
寸法
100
AcDbBlockEnd
  0
BLOCK
  5
6E
100
AcDbEntity
  8
寸法
100
AcDbBlockBegin
  2
*D5
 70
               1
 10
0.0
 20
0.0
 30
0.0
  3
*D5
  1

  0
LINE
  5
6F
100
AcDbEntity
  8
寸法
370
              -2
  6
Continuous
 62
               0
100
AcDbLine
 10
669.59525408296827
 20
1558.3126289866427
 30
0.0
 11
734.59525408296827
 21
1558.3126289866427
 31
0.0
  0
LINE
  5
70
100
AcDbEntity
  8
寸法
370
              -2
  6
Continuous
 62
               0
100
AcDbLine
 10
669.59525408296827
 20
1143.3126289866427
 30
0.0
 11
734.59525408296827
 21
1143.3126289866427
 31
0.0
  0
LINE
  5
71
100
AcDbEntity
  8
寸法
370
              -2
  6
Continuous
 62
               0
100
AcDbLine
 10
729.59525408296827
 20
1563.3126289866427
 30
0.0
 11
729.59525408296827
 21
1558.3126289866427
 31
0.0
  0
LINE
  5
72
100
AcDbEntity
  8
寸法
370
              -2
  6
Continuous
 62
               0
100
AcDbLine
 10
729.59525408296827
 20
1143.3126289866427
 30
0.0
 11
729.59525408296827
 21
1138.3126289866427
 31
0.0
  0
LINE
  5
73
100
AcDbEntity
  8
寸法
370
              -2
  6
Continuous
 62
               0
100
AcDbLine
 10
729.59525408296827
 20
1558.3126289866427
 30
0.0
 11
729.59525408296827
 21
1143.3126289866427
 31
0.0
  0
CIRCLE
  5
74
102
{ACAD_REACTORS
330
75
102
}
100
AcDbEntity
  8
寸法
370
              -2
  6
Continuous
 62
               0
100
AcDbCircle
 10
729.59525408296827
 20
1558.3126289866427
 30
0.0
 40
2.50372314453125
  0
HATCH
  5
75
100
AcDbEntity
  8
寸法
370
              -2
  6
Continuous
 62
               0
100
AcDbHatch
 10
0.0
 20
0.0
 30
0.0
210
0.0
220
0.0
230
1.0
  2
SOLID
 70
               1
 71
               1
 91
        1
 92
        1
 93
        1
 72
               2
 10
729.59525408296827
 20
1558.3126289866427
 40
2.50372314453125
 50
0.0
 51
360.0
 73
               0
 97
        1
330
74
 75
               0
 76
               1
 98
        1
 10
0.0
 20
0.0
  0
CIRCLE
  5
76
102
{ACAD_REACTORS
330
77
102
}
100
AcDbEntity
  8
寸法
370
              -2
  6
Continuous
 62
               0
100
AcDbCircle
 10
729.59525408296827
 20
1143.3126289866427
 30
0.0
 40
2.50372314453125
  0
HATCH
  5
77
100
AcDbEntity
  8
寸法
370
              -2
  6
Continuous
 62
               0
100
AcDbHatch
 10
0.0
 20
0.0
 30
0.0
210
0.0
220
0.0
230
1.0
  2
SOLID
 70
               1
 71
               1
 91
        1
 92
        1
 93
        1
 72
               2
 10
729.59525408296827
 20
1143.3126289866427
 40
2.50372314453125
 50
0.0
 51
360.0
 73
               0
 97
        1
330
76
 75
               0
 76
               1
 98
        1
 10
0.0
 20
0.0
  0
WIPEOUT
  5
78
100
AcDbEntity
  8
寸法
370
              -2
  6
Continuous
 62
               0
 92
        0
100
AcDbWipeout
 90
        0
 10
696.3730318607461
 20
1759.6459623199762
 30
0.0
 11
42.333333333333314
 21
0.0
 31
0.0
 12
0.0
 22
42.333333333333314
 32
0.0
 13
1.0
 23
1.0
340
0
 70
               7
280
               1
281
              50
282
              50
283
               0
360
0
 71
               2
 91
        5
 14
0.1666666666666657
 24
10.657480314960635
 14
0.1666666666666657
 24
9.657480314960635
 14
-0.5
 24
9.657480314960635
 14
-0.5
 24
10.657480314960635
 14
0.1666666666666657
 24
10.657480314960635
  0
MTEXT
  5
79
100
AcDbEntity
  8
寸法
 62
               0
100
AcDbMText
 10
698.92626102741281
 20
1329.6459623199762
 30
0.0
 40
24.694444444444446
 41
0.0
 71
               1
 72
               1
  1
{\H0.8795x;\l415}
 11
0.0
 21
1.0
 31
0.0
 73
               1
 44
0.7828267384257843
  0
POINT
  5
7A
100
AcDbEntity
  8
Defpoints
370
               0
 62
               0
100
AcDbPoint
 10
659.59525408296827
 20
1143.3126289866427
 30
0.0
  0
POINT
  5
7B
100
AcDbEntity
  8
Defpoints
370
               0
 62
               0
100
AcDbPoint
 10
659.59525408296827
 20
1558.3126289866427
 30
0.0
  0
POINT
  5
7C
100
AcDbEntity
  8
Defpoints
370
               0
 62
               0
100
AcDbPoint
 10
729.59525408296827
 20
1558.3126289866427
 30
0.0
  0
ENDBLK
  5
7D
100
AcDbEntity
  8
寸法
100
AcDbBlockEnd
  0
BLOCK
  5
7E
100
AcDbEntity
  8
寸法
100
AcDbBlockBegin
  2
*D6
 70
               1
 10
0.0
 20
0.0
 30
0.0
  3
*D6
  1

  0
LINE
  5
7F
100
AcDbEntity
  8
寸法
370
              -2
  6
Continuous
 62
               0
100
AcDbLine
 10
669.59525408296827
 20
630.0
 30
0.0
 11
784.59525408296827
 21
630.0
 31
0.0
  0
LINE
  5
80
100
AcDbEntity
  8
寸法
370
              -2
  6
Continuous
 62
               0
100
AcDbLine
 10
669.59525408296827
 20
500.0
 30
0.0
 11
784.59525408296827
 21
500.0
 31
0.0
  0
LINE
  5
81
100
AcDbEntity
  8
寸法
370
              -2
  6
Continuous
 62
               0
100
AcDbLine
 10
779.59525408296827
 20
635.0
 30
0.0
 11
779.59525408296827
 21
630.0
 31
0.0
  0
LINE
  5
82
100
AcDbEntity
  8
寸法
370
              -2
  6
Continuous
 62
               0
100
AcDbLine
 10
779.59525408296827
 20
500.0
 30
0.0
 11
779.59525408296827
 21
495.0
 31
0.0
  0
LINE
  5
83
100
AcDbEntity
  8
寸法
370
              -2
  6
Continuous
 62
               0
100
AcDbLine
 10
779.59525408296827
 20
630.0
 30
0.0
 11
779.59525408296827
 21
500.0
 31
0.0
  0
CIRCLE
  5
84
102
{ACAD_REACTORS
330
85
102
}
100
AcDbEntity
  8
寸法
370
              -2
  6
Continuous
 62
               0
100
AcDbCircle
 10
779.59525408296827
 20
630.0
 30
0.0
 40
2.50372314453125
  0
HATCH
  5
85
100
AcDbEntity
  8
寸法
370
              -2
  6
Continuous
 62
               0
100
AcDbHatch
 10
0.0
 20
0.0
 30
0.0
210
0.0
220
0.0
230
1.0
  2
SOLID
 70
               1
 71
               1
 91
        1
 92
        1
 93
        1
 72
               2
 10
779.59525408296827
 20
630.0
 40
2.50372314453125
 50
0.0
 51
360.0
 73
               0
 97
        1
330
84
 75
               0
 76
               1
 98
        1
 10
0.0
 20
0.0
  0
CIRCLE
  5
86
102
{ACAD_REACTORS
330
87
102
}
100
AcDbEntity
  8
寸法
370
              -2
  6
Continuous
 62
               0
100
AcDbCircle
 10
779.59525408296827
 20
500.0
 30
0.0
 40
2.50372314453125
  0
HATCH
  5
87
100
AcDbEntity
  8
寸法
370
              -2
  6
Continuous
 62
               0
100
AcDbHatch
 10
0.0
 20
0.0
 30
0.0
210
0.0
220
0.0
230
1.0
  2
SOLID
 70
               1
 71
               1
 91
        1
 92
        1
 93
        1
 72
               2
 10
779.59525408296827
 20
500.0
 40
2.50372314453125
 50
0.0
 51
360.0
 73
               0
 97
        1
330
86
 75
               0
 76
               1
 98
        1
 10
0.0
 20
0.0
  0
WIPEOUT
  5
88
100
AcDbEntity
  8
寸法
370
              -2
  6
Continuous
 62
               0
 92
        0
100
AcDbWipeout
 90
        0
 10
746.3730318607461
 20
973.83333333333337
 30
0.0
 11
42.333333333333314
 21
0.0
 31
0.0
 12
0.0
 22
42.333333333333314
 32
0.0
 13
1.0
 23
1.0
340
0
 70
               7
280
               1
281
              50
282
              50
283
               0
360
0
 71
               2
 91
        5
 14
0.1666666666666657
 24
10.657480314960635
 14
0.1666666666666657
 24
9.6574803149606332
 14
-0.5
 24
9.6574803149606332
 14
-0.5
 24
10.657480314960635
 14
0.1666666666666657
 24
10.657480314960635
  0
MTEXT
  5
89
100
AcDbEntity
  8
寸法
 62
               0
100
AcDbMText
 10
748.92626102741281
 20
543.83333333333337
 30
0.0
 40
24.694444444444446
 41
0.0
 71
               1
 72
               1
  1
{\H0.8795x;\l130}
 11
0.0
 21
1.0
 31
0.0
 73
               1
 44
0.7828267384257843
  0
POINT
  5
8A
100
AcDbEntity
  8
Defpoints
370
               0
 62
               0
100
AcDbPoint
 10
659.59525408296827
 20
500.0
 30
0.0
  0
POINT
  5
8B
100
AcDbEntity
  8
Defpoints
370
               0
 62
               0
100
AcDbPoint
 10
659.59525408296827
 20
630.0
 30
0.0
  0
POINT
  5
8C
100
AcDbEntity
  8
Defpoints
370
               0
 62
               0
100
AcDbPoint
 10
779.59525408296827
 20
630.0
 30
0.0
  0
ENDBLK
  5
8D
100
AcDbEntity
  8
寸法
100
AcDbBlockEnd
  0
BLOCK
  5
8E
100
AcDbEntity
  8
一般
100
AcDbBlockBegin
  2
グループ-1
 70
               0
 10
0.0
 20
0.0
 30
0.0
  3
グループ-1
  1

  0
MTEXT
  5
8F
100
AcDbEntity
  8
一般
 62
               7
100
AcDbMText
 10
-991.23057275454676
 20
299.66936605258178
 30
0.0
 40
24.694444444444446
 41
56.599999999999909
 71
               1
 72
               1
  1
{\H0.8795x;\l50}
 11
0.7071067811865474
 21
-0.7071067811865477
 31
0.0
 73
               1
 44
0.7828267384257843
  0
MTEXT
  5
90
100
AcDbEntity
  8
一般
 62
               7
100
AcDbMText
 10
-992.41548789796275
 20
300.88861396520014
 30
0.0
 40
24.459641629329354
 41
28.299999999999955
 71
               3
 72
               1
  1
{\H0.8795x;\lφ}
 11
0.7071067811865474
 21
-0.7071067811865477
 31
0.0
 73
               1
 44
0.7828267384257844
  0
ENDBLK
  5
91
100
AcDbEntity
  8
一般
100
AcDbBlockEnd
  0
BLOCK
  5
92
100
AcDbEntity
  8
寸法
100
AcDbBlockBegin
  2
*D8
 70
               1
 10
0.0
 20
0.0
 30
0.0
  3
*D8
  1

  0
LINE
  5
93
100
AcDbEntity
  8
寸法
370
              -2
  6
Continuous
 62
               0
100
AcDbLine
 10
393.48008455329932
 20
1368.490298516311
 30
0.0
 11
428.83542361263562
 21
1333.1349594569749
 31
0.0
  0
LINE
  5
94
100
AcDbEntity
  8
寸法
370
              -2
  6
Continuous
 62
               0
100
AcDbLine
 10
393.48008455329932
 20
1368.490298516311
 30
0.0
 11
397.6452222177893
 21
1365.573837725954
 31
0.0
  0
LINE
  5
95
100
AcDbEntity
  8
寸法
370
              -2
  6
Continuous
 62
               0
100
AcDbLine
 10
393.48008455329932
 20
1368.490298516311
 30
0.0
 11
396.39654534365627
 21
1364.325160851821
 31
0.0
  0
LINE
  5
96
100
AcDbEntity
  8
寸法
370
              -2
  6
Continuous
 62
               0
100
AcDbLine
 10
397.6452222177893
 20
1365.573837725954
 30
0.0
 11
396.39654534365627
 21
1364.325160851821
 31
0.0
  0
LINE
  5
97
100
AcDbEntity
  8
寸法
370
              -2
  6
Continuous
 62
               0
100
AcDbLine
 10
428.83542361263562
 20
1333.1349594569749
 30
0.0
 11
424.67028594814565
 21
1336.0514202473319
 31
0.0
  0
LINE
  5
98
100
AcDbEntity
  8
寸法
370
              -2
  6
Continuous
 62
               0
100
AcDbLine
 10
428.83542361263562
 20
1333.1349594569749
 30
0.0
 11
425.91896282227867
 21
1337.3000971214649
 31
0.0
  0
LINE
  5
99
100
AcDbEntity
  8
寸法
370
              -2
  6
Continuous
 62
               0
100
AcDbLine
 10
424.67028594814565
 20
1336.0514202473319
 30
0.0
 11
425.91896282227867
 21
1337.3000971214649
 31
0.0
  0
POINT
  5
9A
100
AcDbEntity
  8
Defpoints
370
               0
 62
               0
100
AcDbPoint
 10
393.48008455329932
 20
1368.490298516311
 30
0.0
  0
POINT
  5
9B
100
AcDbEntity
  8
Defpoints
370
               0
 62
               0
100
AcDbPoint
 10
428.83542361263562
 20
1333.1349594569749
 30
0.0
  0
ENDBLK
  5
9C
100
AcDbEntity
  8
寸法
100
AcDbBlockEnd
  0
BLOCK
  5
9D
100
AcDbEntity
  8
寸法
100
AcDbBlockBegin
  2
*D9
 70
               1
 10
0.0
 20
0.0
 30
0.0
  3
*D9
  1

  0
LINE
  5
9E
100
AcDbEntity
  8
寸法
370
              -2
  6
Continuous
 62
               0
100
AcDbLine
 10
281.15775408296759
 20
483.28023976416159
 30
0.0
 11
281.15775408296759
 21
434.26420468028289
 31
0.0
  0
LINE
  5
9F
100
AcDbEntity
  8
寸法
370
              -2
  6
Continuous
 62
               0
100
AcDbLine
 10
541.15775408296759
 20
483.28023976416159
 30
0.0
 11
541.15775408296759
 21
434.26420468028289
 31
0.0
  0
LINE
  5
A0
100
AcDbEntity
  8
寸法
370
              -2
  6
Continuous
 62
               0
100
AcDbLine
 10
276.15775408296759
 20
439.26420468028289
 30
0.0
 11
281.15775408296759
 21
439.26420468028289
 31
0.0
  0
LINE
  5
A1
100
AcDbEntity
  8
寸法
370
              -2
  6
Continuous
 62
               0
100
AcDbLine
 10
541.15775408296759
 20
439.26420468028289
 30
0.0
 11
546.15775408296759
 21
439.26420468028289
 31
0.0
  0
LINE
  5
A2
100
AcDbEntity
  8
寸法
370
              -2
  6
Continuous
 62
               0
100
AcDbLine
 10
281.15775408296759
 20
439.26420468028289
 30
0.0
 11
541.15775408296759
 21
439.26420468028289
 31
0.0
  0
CIRCLE
  5
A3
102
{ACAD_REACTORS
330
A4
102
}
100
AcDbEntity
  8
寸法
370
              -2
  6
Continuous
 62
               0
100
AcDbCircle
 10
281.15775408296759
 20
439.26420468028289
 30
0.0
 40
2.50372314453125
  0
HATCH
  5
A4
100
AcDbEntity
  8
寸法
370
              -2
  6
Continuous
 62
               0
100
AcDbHatch
 10
0.0
 20
0.0
 30
0.0
210
0.0
220
0.0
230
1.0
  2
SOLID
 70
               1
 71
               1
 91
        1
 92
        1
 93
        1
 72
               2
 10
281.15775408296759
 20
439.26420468028289
 40
2.50372314453125
 50
0.0
 51
360.0
 73
               0
 97
        1
330
A3
 75
               0
 76
               1
 98
        1
 10
0.0
 20
0.0
  0
CIRCLE
  5
A5
102
{ACAD_REACTORS
330
A6
102
}
100
AcDbEntity
  8
寸法
370
              -2
  6
Continuous
 62
               0
100
AcDbCircle
 10
541.15775408296759
 20
439.26420468028289
 30
0.0
 40
2.50372314453125
  0
HATCH
  5
A6
100
AcDbEntity
  8
寸法
370
              -2
  6
Continuous
 62
               0
100
AcDbHatch
 10
0.0
 20
0.0
 30
0.0
210
0.0
220
0.0
230
1.0
  2
SOLID
 70
               1
 71
               1
 91
        1
 92
        1
 93
        1
 72
               2
 10
541.15775408296759
 20
439.26420468028289
 40
2.50372314453125
 50
0.0
 51
360.0
 73
               0
 97
        1
330
A5
 75
               0
 76
               1
 98
        1
 10
0.0
 20
0.0
  0
WIPEOUT
  5
A7
100
AcDbEntity
  8
寸法
370
              -2
  6
Continuous
 62
               0
 92
        0
100
AcDbWipeout
 90
        0
 10
388.42858741630153
 20
874.26420468028289
 30
0.0
 11
42.333333333333371
 21
0.0
 31
0.0
 12
0.0
 22
42.333333333333371
 32
0.0
 13
1.0
 23
1.0
340
0
 70
               7
280
               1
281
              50
282
              50
283
               0
360
0
 71
               2
 91
        5
 14
-0.5
 24
10.657480314960621
 14
0.5
 24
10.657480314960621
 14
0.5
 24
9.9908136482939565
 14
-0.5
 24
9.9908136482939565
 14
-0.5
 24
10.657480314960621
  0
MTEXT
  5
A8
100
AcDbEntity
  8
寸法
 62
               0
100
AcDbMText
 10
388.42858741630153
 20
469.93319773583835
 30
0.0
 40
24.694444444444446
 41
0.0
 71
               1
 72
               1
  1
{\H0.8795x;\l260}
 73
               1
 44
0.7828267384257843
  0
POINT
  5
A9
100
AcDbEntity
  8
Defpoints
370
               0
 62
               0
100
AcDbPoint
 10
541.15775408296759
 20
493.28023976416159
 30
0.0
  0
POINT
  5
AA
100
AcDbEntity
  8
Defpoints
370
               0
 62
               0
100
AcDbPoint
 10
281.15775408296759
 20
493.28023976416159
 30
0.0
  0
POINT
  5
AB
100
AcDbEntity
  8
Defpoints
370
               0
 62
               0
100
AcDbPoint
 10
281.15775408296759
 20
439.26420468028289
 30
0.0
  0
ENDBLK
  5
AC
100
AcDbEntity
  8
寸法
100
AcDbBlockEnd
  0
BLOCK
  5
AD
100
AcDbEntity
  8
寸法
100
AcDbBlockBegin
  2
*D10
 70
               1
 10
0.0
 20
0.0
 30
0.0
  3
*D10
  1

  0
LINE
  5
AE
100
AcDbEntity
  8
寸法
370
              -2
  6
Continuous
 62
               0
100
AcDbLine
 10
293.65775408296759
 20
1270.0
 30
0.0
 11
293.65775408296759
 21
1425.0
 31
0.0
  0
LINE
  5
AF
100
AcDbEntity
  8
寸法
370
              -2
  6
Continuous
 62
               0
100
AcDbLine
 10
528.65775408296759
 20
1270.0
 30
0.0
 11
528.65775408296759
 21
1425.0
 31
0.0
  0
LINE
  5
B0
100
AcDbEntity
  8
寸法
370
              -2
  6
Continuous
 62
               0
100
AcDbLine
 10
288.65775408296759
 20
1420.0
 30
0.0
 11
293.65775408296759
 21
1420.0
 31
0.0
  0
LINE
  5
B1
100
AcDbEntity
  8
寸法
370
              -2
  6
Continuous
 62
               0
100
AcDbLine
 10
528.65775408296759
 20
1420.0
 30
0.0
 11
533.65775408296759
 21
1420.0
 31
0.0
  0
LINE
  5
B2
100
AcDbEntity
  8
寸法
370
              -2
  6
Continuous
 62
               0
100
AcDbLine
 10
293.65775408296759
 20
1420.0
 30
0.0
 11
528.65775408296759
 21
1420.0
 31
0.0
  0
CIRCLE
  5
B3
102
{ACAD_REACTORS
330
B4
102
}
100
AcDbEntity
  8
寸法
370
              -2
  6
Continuous
 62
               0
100
AcDbCircle
 10
293.65775408296759
 20
1420.0
 30
0.0
 40
2.50372314453125
  0
HATCH
  5
B4
100
AcDbEntity
  8
寸法
370
              -2
  6
Continuous
 62
               0
100
AcDbHatch
 10
0.0
 20
0.0
 30
0.0
210
0.0
220
0.0
230
1.0
  2
SOLID
 70
               1
 71
               1
 91
        1
 92
        1
 93
        1
 72
               2
 10
293.65775408296759
 20
1420.0
 40
2.50372314453125
 50
0.0
 51
360.0
 73
               0
 97
        1
330
B3
 75
               0
 76
               1
 98
        1
 10
0.0
 20
0.0
  0
CIRCLE
  5
B5
102
{ACAD_REACTORS
330
B6
102
}
100
AcDbEntity
  8
寸法
370
              -2
  6
Continuous
 62
               0
100
AcDbCircle
 10
528.65775408296759
 20
1420.0
 30
0.0
 40
2.50372314453125
  0
HATCH
  5
B6
100
AcDbEntity
  8
寸法
370
              -2
  6
Continuous
 62
               0
100
AcDbHatch
 10
0.0
 20
0.0
 30
0.0
210
0.0
220
0.0
230
1.0
  2
SOLID
 70
               1
 71
               1
 91
        1
 92
        1
 93
        1
 72
               2
 10
528.65775408296759
 20
1420.0
 40
2.50372314453125
 50
0.0
 51
360.0
 73
               0
 97
        1
330
B5
 75
               0
 76
               1
 98
        1
 10
0.0
 20
0.0
  0
WIPEOUT
  5
B7
100
AcDbEntity
  8
寸法
370
              -2
  6
Continuous
 62
               0
 92
        0
100
AcDbWipeout
 90
        0
 10
389.99108741630084
 20
1855.0
 30
0.0
 11
42.333333333333371
 21
0.0
 31
0.0
 12
0.0
 22
42.333333333333371
 32
0.0
 13
1.0
 23
1.0
340
0
 70
               7
280
               1
281
              50
282
              50
283
               0
360
0
 71
               2
 91
        5
 14
-0.5
 24
10.657480314960621
 14
0.5
 24
10.657480314960621
 14
0.5
 24
9.9908136482939565
 14
-0.5
 24
9.9908136482939565
 14
-0.5
 24
10.657480314960621
  0
MTEXT
  5
B8
100
AcDbEntity
  8
寸法
 62
               0
100
AcDbMText
 10
389.99108741630084
 20
1450.6689930555556
 30
0.0
 40
24.694444444444446
 41
0.0
 71
               1
 72
               1
  1
{\H0.8795x;\l235}
 73
               1
 44
0.7828267384257843
  0
POINT
  5
B9
100
AcDbEntity
  8
Defpoints
370
               0
 62
               0
100
AcDbPoint
 10
528.65775408296759
 20
1260.0
 30
0.0
  0
POINT
  5
BA
100
AcDbEntity
  8
Defpoints
370
               0
 62
               0
100
AcDbPoint
 10
293.65775408296759
 20
1260.0
 30
0.0
  0
POINT
  5
BB
100
AcDbEntity
  8
Defpoints
370
               0
 62
               0
100
AcDbPoint
 10
293.65775408296759
 20
1420.0
 30
0.0
  0
ENDBLK
  5
BC
100
AcDbEntity
  8
寸法
100
AcDbBlockEnd
  0
BLOCK
  5
BD
100
AcDbEntity
  8
寸法
100
AcDbBlockBegin
  2
*D11
 70
               1
 10
0.0
 20
0.0
 30
0.0
  3
*D11
  1

  0
LINE
  5
BE
100
AcDbEntity
  8
寸法
370
              -2
  6
Continuous
 62
               0
100
AcDbLine
 10
669.59525408296827
 20
630.0
 30
0.0
 11
734.59525408296827
 21
630.0
 31
0.0
  0
LINE
  5
BF
100
AcDbEntity
  8
寸法
370
              -2
  6
Continuous
 62
               0
100
AcDbLine
 10
669.59525408296827
 20
520.0
 30
0.0
 11
734.59525408296827
 21
520.0
 31
0.0
  0
LINE
  5
C0
100
AcDbEntity
  8
寸法
370
              -2
  6
Continuous
 62
               0
100
AcDbLine
 10
729.59525408296827
 20
635.0
 30
0.0
 11
729.59525408296827
 21
630.0
 31
0.0
  0
LINE
  5
C1
100
AcDbEntity
  8
寸法
370
              -2
  6
Continuous
 62
               0
100
AcDbLine
 10
729.59525408296827
 20
520.0
 30
0.0
 11
729.59525408296827
 21
515.0
 31
0.0
  0
LINE
  5
C2
100
AcDbEntity
  8
寸法
370
              -2
  6
Continuous
 62
               0
100
AcDbLine
 10
729.59525408296827
 20
630.0
 30
0.0
 11
729.59525408296827
 21
520.0
 31
0.0
  0
CIRCLE
  5
C3
102
{ACAD_REACTORS
330
C4
102
}
100
AcDbEntity
  8
寸法
370
              -2
  6
Continuous
 62
               0
100
AcDbCircle
 10
729.59525408296827
 20
630.0
 30
0.0
 40
2.50372314453125
  0
HATCH
  5
C4
100
AcDbEntity
  8
寸法
370
              -2
  6
Continuous
 62
               0
100
AcDbHatch
 10
0.0
 20
0.0
 30
0.0
210
0.0
220
0.0
230
1.0
  2
SOLID
 70
               1
 71
               1
 91
        1
 92
        1
 93
        1
 72
               2
 10
729.59525408296827
 20
630.0
 40
2.50372314453125
 50
0.0
 51
360.0
 73
               0
 97
        1
330
C3
 75
               0
 76
               1
 98
        1
 10
0.0
 20
0.0
  0
CIRCLE
  5
C5
102
{ACAD_REACTORS
330
C6
102
}
100
AcDbEntity
  8
寸法
370
              -2
  6
Continuous
 62
               0
100
AcDbCircle
 10
729.59525408296827
 20
520.0
 30
0.0
 40
2.50372314453125
  0
HATCH
  5
C6
100
AcDbEntity
  8
寸法
370
              -2
  6
Continuous
 62
               0
100
AcDbHatch
 10
0.0
 20
0.0
 30
0.0
210
0.0
220
0.0
230
1.0
  2
SOLID
 70
               1
 71
               1
 91
        1
 92
        1
 93
        1
 72
               2
 10
729.59525408296827
 20
520.0
 40
2.50372314453125
 50
0.0
 51
360.0
 73
               0
 97
        1
330
C5
 75
               0
 76
               1
 98
        1
 10
0.0
 20
0.0
  0
MTEXT
  5
C7
100
AcDbEntity
  8
寸法
 62
               0
100
AcDbMText
 10
698.92626102741281
 20
553.83333333333337
 30
0.0
 40
24.694444444444446
 41
0.0
 71
               1
 72
               1
  1
{\H0.8795x;\l110}
 11
0.0
 21
1.0
 31
0.0
 73
               1
 44
0.7828267384257843
  0
POINT
  5
C8
100
AcDbEntity
  8
Defpoints
370
               0
 62
               0
100
AcDbPoint
 10
659.59525408296827
 20
520.0
 30
0.0
  0
POINT
  5
C9
100
AcDbEntity
  8
Defpoints
370
               0
 62
               0
100
AcDbPoint
 10
659.59525408296827
 20
630.0
 30
0.0
  0
POINT
  5
CA
100
AcDbEntity
  8
Defpoints
370
               0
 62
               0
100
AcDbPoint
 10
729.59525408296827
 20
630.0
 30
0.0
  0
ENDBLK
  5
CB
100
AcDbEntity
  8
寸法
100
AcDbBlockEnd
  0
ENDSEC
  0
SECTION
  2
ENTITIES
  0
POLYLINE
  5
CC
100
AcDbEntity
  8
一般
370
               5
 62
               7
100
AcDb2dPolyline
 66
               1
 10
0.0
 20
0.0
 30
0.0
 70
               1
 75
               5
  0
VERTEX
  5
CD
100
AcDbEntity
  8
一般
370
               5
 62
               7
100
AcDbVertex
100
AcDb2dVertex
 10
2650.0
 20
250.0
 30
0.0
  0
VERTEX
  5
CE
100
AcDbEntity
  8
一般
370
               5
 62
               7
100
AcDbVertex
100
AcDb2dVertex
 10
2800.0
 20
250.0
 30
0.0
  0
VERTEX
  5
CF
100
AcDbEntity
  8
一般
370
               5
 62
               7
100
AcDbVertex
100
AcDb2dVertex
 10
2800.0
 20
100.0
 30
0.0
  0
VERTEX
  5
D0
100
AcDbEntity
  8
一般
370
               5
 62
               7
100
AcDbVertex
100
AcDb2dVertex
 10
2650.0
 20
100.0
 30
0.0
  0
SEQEND
  5
D1
100
AcDbEntity
  8
一般
370
               5
 62
               7
  0
POLYLINE
  5
D2
100
AcDbEntity
  8
一般
370
               5
 62
               7
100
AcDb2dPolyline
 66
               1
 10
0.0
 20
0.0
 30
0.0
 70
               1
 75
               5
  0
VERTEX
  5
D3
100
AcDbEntity
  8
一般
370
               5
 62
               7
100
AcDbVertex
100
AcDb2dVertex
 10
2440.0
 20
250.0
 30
0.0
  0
VERTEX
  5
D4
100
AcDbEntity
  8
一般
370
               5
 62
               7
100
AcDbVertex
100
AcDb2dVertex
 10
2590.0
 20
250.0
 30
0.0
  0
VERTEX
  5
D5
100
AcDbEntity
  8
一般
370
               5
 62
               7
100
AcDbVertex
100
AcDb2dVertex
 10
2590.0
 20
100.0
 30
0.0
  0
VERTEX
  5
D6
100
AcDbEntity
  8
一般
370
               5
 62
               7
100
AcDbVertex
100
AcDb2dVertex
 10
2440.0
 20
100.0
 30
0.0
  0
SEQEND
  5
D7
100
AcDbEntity
  8
一般
370
               5
 62
               7
  0
POLYLINE
  5
D8
100
AcDbEntity
  8
一般
370
               5
 62
               7
100
AcDb2dPolyline
 66
               1
 10
0.0
 20
0.0
 30
0.0
 70
               1
 75
               5
  0
VERTEX
  5
D9
100
AcDbEntity
  8
一般
370
               5
 62
               7
100
AcDbVertex
100
AcDb2dVertex
 10
2230.0
 20
250.0
 30
0.0
  0
VERTEX
  5
DA
100
AcDbEntity
  8
一般
370
               5
 62
               7
100
AcDbVertex
100
AcDb2dVertex
 10
2380.0
 20
250.0
 30
0.0
  0
VERTEX
  5
DB
100
AcDbEntity
  8
一般
370
               5
 62
               7
100
AcDbVertex
100
AcDb2dVertex
 10
2380.0
 20
100.0
 30
0.0
  0
VERTEX
  5
DC
100
AcDbEntity
  8
一般
370
               5
 62
               7
100
AcDbVertex
100
AcDb2dVertex
 10
2230.0
 20
100.0
 30
0.0
  0
SEQEND
  5
DD
100
AcDbEntity
  8
一般
370
               5
 62
               7
  0
POLYLINE
  5
DE
100
AcDbEntity
  8
一般
370
               5
 62
               7
100
AcDb2dPolyline
 66
               1
 10
0.0
 20
0.0
 30
0.0
 70
               1
 75
               5
  0
VERTEX
  5
DF
100
AcDbEntity
  8
一般
370
               5
 62
               7
100
AcDbVertex
100
AcDb2dVertex
 10
2020.0
 20
250.0
 30
0.0
  0
VERTEX
  5
E0
100
AcDbEntity
  8
一般
370
               5
 62
               7
100
AcDbVertex
100
AcDb2dVertex
 10
2170.0
 20
250.0
 30
0.0
  0
VERTEX
  5
E1
100
AcDbEntity
  8
一般
370
               5
 62
               7
100
AcDbVertex
100
AcDb2dVertex
 10
2170.0
 20
100.0
 30
0.0
  0
VERTEX
  5
E2
100
AcDbEntity
  8
一般
370
               5
 62
               7
100
AcDbVertex
100
AcDb2dVertex
 10
2020.0
 20
100.0
 30
0.0
  0
SEQEND
  5
E3
100
AcDbEntity
  8
一般
370
               5
 62
               7
  0
MTEXT
  5
E7
100
AcDbEntity
  8
一般
 62
               7
100
AcDbMText
 10
1700.0
 20
1851.8392939814814
 30
0.0
 40
70.739293981481481
 41
663.86751345947823
 71
               1
 72
               1
  1
 B1-B401\P
  7
Arial
 73
               1
 44
0.9673603504928806
  0
MTEXT
  5
E8
100
AcDbEntity
  8
一般
 62
             250
100
AcDbMText
 10
1760.414518843271
 20
1664.9467051534775
 30
0.0
 40
25.264033564814813
 41
403.45299461620721
 71
               1
 72
               1
  1
1 Apr 2009
  7
Arial (bold)
 73
               1
 44
0.9925958378970429
  0
INSERT
  5
E9
100
AcDbEntity
  8
一般
 62
               7
100
AcDbBlockReference
  2
scal 1_10
 10
1628.2280664253656
 20
120.0
 30
0.0
  0
MTEXT
  5
EA
100
AcDbEntity
  8
一般
 62
             250
100
AcDbMText
 10
1802.898078286597
 20
1522.2056684027777
 30
0.0
 40
21.717881944444446
 41
180.0
 71
               1
 72
               1
  1
容量　　　：
  7
ＭＳ ゴシック
 73
               1
 44
0.7828267384257843
  0
MTEXT
  5
EB
100
AcDbEntity
  8
一般
 62
             250
100
AcDbMText
 10
1992.898078286597
 20
1522.2056684027777
 30
0.0
 40
21.717881944444446
 41
180.0
 71
               1
 72
               1
  1
5L
  7
ＭＳ ゴシック
 73
               1
 44
0.7828267384257843
  0
LINE
  5
EC
100
AcDbEntity
  8
一般
370
               5
  6
STYLE_06
 62
               7
100
AcDbLine
 10
411.15775408296759
 20
1630.0
 30
0.0
 11
411.15775408296759
 21
480.0
 31
0.0
  0
POLYLINE
  5
ED
100
AcDbEntity
  8
一般
370
              15
  6
Continuous
 62
               7
100
AcDb2dPolyline
 66
               1
 10
0.0
 20
0.0
 30
0.0
 70
               1
 75
               5
  0
VERTEX
  5
EE
100
AcDbEntity
  8
一般
370
              15
  6
Continuous
 62
               7
100
AcDbVertex
100
AcDb2dVertex
 10
203.65775408296759
 20
1558.3126289866427
 30
0.0
  0
VERTEX
  5
EF
100
AcDbEntity
  8
一般
370
              15
  6
Continuous
 62
               7
100
AcDbVertex
100
AcDb2dVertex
 10
618.65775408296759
 20
1558.3126289866427
 30
0.0
  0
VERTEX
  5
F0
100
AcDbEntity
  8
一般
370
              15
  6
Continuous
 62
               7
100
AcDbVertex
100
AcDb2dVertex
 10
618.65775408296759
 20
1143.3126289866427
 30
0.0
  0
VERTEX
  5
F1
100
AcDbEntity
  8
一般
370
              15
  6
Continuous
 62
               7
100
AcDbVertex
100
AcDb2dVertex
 10
203.65775408296759
 20
1143.3126289866427
 30
0.0
  0
SEQEND
  5
F2
100
AcDbEntity
  8
一般
370
              15
  6
Continuous
 62
               7
  0
POLYLINE
  5
F3
100
AcDbEntity
  8
一般
370
              15
  6
Continuous
 62
               7
100
AcDb2dPolyline
 66
               1
 10
0.0
 20
0.0
 30
0.0
 70
               1
 75
               5
  0
VERTEX
  5
F4
100
AcDbEntity
  8
一般
370
              15
  6
Continuous
 62
               7
100
AcDbVertex
100
AcDb2dVertex
 10
213.65775408296759
 20
1548.3126289866427
 30
0.0
  0
VERTEX
  5
F5
100
AcDbEntity
  8
一般
370
              15
  6
Continuous
 62
               7
100
AcDbVertex
100
AcDb2dVertex
 10
608.65775408296759
 20
1548.3126289866427
 30
0.0
  0
VERTEX
  5
F6
100
AcDbEntity
  8
一般
370
              15
  6
Continuous
 62
               7
100
AcDbVertex
100
AcDb2dVertex
 10
608.65775408296759
 20
1153.3126289866427
 30
0.0
  0
VERTEX
  5
F7
100
AcDbEntity
  8
一般
370
              15
  6
Continuous
 62
               7
100
AcDbVertex
100
AcDb2dVertex
 10
213.65775408296759
 20
1153.3126289866427
 30
0.0
  0
SEQEND
  5
F8
100
AcDbEntity
  8
一般
370
              15
  6
Continuous
 62
               7
  0
POLYLINE
  5
F9
100
AcDbEntity
  8
一般
370
              15
  6
Continuous
 62
               7
100
AcDb2dPolyline
 66
               1
 10
0.0
 20
0.0
 30
0.0
 70
               1
 75
               5
  0
VERTEX
  5
FA
100
AcDbEntity
  8
一般
370
              15
  6
Continuous
 62
               7
100
AcDbVertex
100
AcDb2dVertex
 10
293.65775408296759
 20
1468.3126289866427
 30
0.0
  0
VERTEX
  5
FB
100
AcDbEntity
  8
一般
370
              15
  6
Continuous
 62
               7
100
AcDbVertex
100
AcDb2dVertex
 10
528.65775408296759
 20
1468.3126289866427
 30
0.0
  0
VERTEX
  5
FC
100
AcDbEntity
  8
一般
370
              15
  6
Continuous
 62
               7
100
AcDbVertex
100
AcDb2dVertex
 10
528.65775408296759
 20
1233.3126289866429
 30
0.0
  0
VERTEX
  5
FD
100
AcDbEntity
  8
一般
370
              15
  6
Continuous
 62
               7
100
AcDbVertex
100
AcDb2dVertex
 10
293.65775408296759
 20
1233.3126289866429
 30
0.0
  0
SEQEND
  5
FE
100
AcDbEntity
  8
一般
370
              15
  6
Continuous
 62
               7
  0
LINE
  5
FF
100
AcDbEntity
  8
一般
370
              15
  6
Continuous
 62
               7
100
AcDbLine
 10
608.65775408296759
 20
1153.3126289866427
 30
0.0
 11
528.65775408296759
 21
1233.3126289866429
 31
0.0
  0
LINE
  5
100
100
AcDbEntity
  8
一般
370
              15
  6
Continuous
 62
               7
100
AcDbLine
 10
293.65775408296759
 20
1233.3126289866429
 30
0.0
 11
213.65775408296759
 21
1153.3126289866427
 31
0.0
  0
LINE
  5
101
100
AcDbEntity
  8
一般
370
              15
  6
Continuous
 62
               7
100
AcDbLine
 10
528.65775408296759
 20
1468.3126289866427
 30
0.0
 11
608.65775408296759
 21
1548.3126289866427
 31
0.0
  0
LINE
  5
102
100
AcDbEntity
  8
一般
370
              15
  6
Continuous
 62
               7
100
AcDbLine
 10
293.65775408296759
 20
1468.3126289866427
 30
0.0
 11
213.65775408296759
 21
1548.3126289866427
 31
0.0
  0
CIRCLE
  5
103
100
AcDbEntity
  8
一般
370
              15
  6
Continuous
 62
               7
100
AcDbCircle
 10
411.15775408296759
 20
1350.8126289866427
 30
0.0
 40
25.0
  0
LINE
  5
104
100
AcDbEntity
  8
一般
370
              15
  6
Continuous
 62
               7
100
AcDbLine
 10
618.65775408296759
 20
630.0
 30
0.0
 11
608.65775408296759
 21
630.0
 31
0.0
  0
LINE
  5
105
100
AcDbEntity
  8
一般
370
              15
  6
Continuous
 62
               7
100
AcDbLine
 10
618.65775408296759
 20
630.0
 30
0.0
 11
608.65775408296759
 21
630.0
 31
0.0
  0
LINE
  5
106
100
AcDbEntity
  8
一般
370
              15
  6
Continuous
 62
               7
100
AcDbLine
 10
203.65775408296759
 20
630.0
 30
0.0
 11
213.65775408296759
 21
630.0
 31
0.0
  0
LINE
  5
107
100
AcDbEntity
  8
一般
370
              15
  6
Continuous
 62
               7
100
AcDbLine
 10
281.15775408296759
 20
500.0
 30
0.0
 11
541.15775408296759
 21
500.0
 31
0.0
  0
LINE
  5
108
100
AcDbEntity
  8
一般
370
              15
  6
Continuous
 62
               7
100
AcDbLine
 10
203.65775408296759
 20
630.0
 30
0.0
 11
281.15775408296759
 21
500.0
 31
0.0
  0
LINE
  5
109
100
AcDbEntity
  8
一般
370
              15
  6
Continuous
 62
               7
100
AcDbLine
 10
618.65775408296759
 20
630.0
 30
0.0
 11
541.15775408296759
 21
500.0
 31
0.0
  0
LINE
  5
10A
100
AcDbEntity
  8
一般
370
              15
  6
Continuous
 62
               7
100
AcDbLine
 10
303.84224591703219
 20
520.0
 30
0.0
 11
376.15775408296759
 21
520.0
 31
0.0
  0
LINE
  5
10B
100
AcDbEntity
  8
一般
370
              15
  6
Continuous
 62
               7
100
AcDbLine
 10
446.15775408296759
 20
520.0
 30
0.0
 11
518.47326224890298
 21
520.0
 31
0.0
  0
LINE
  5
10C
100
AcDbEntity
  8
一般
370
              15
  6
Continuous
 62
               7
100
AcDbLine
 10
376.15775408296759
 20
520.0
 30
0.0
 11
446.15775408296759
 21
520.0
 31
0.0
  0
LINE
  5
10D
100
AcDbEntity
  8
一般
370
              15
  6
Continuous
 62
               7
100
AcDbLine
 10
213.65775408296759
 20
630.0
 30
0.0
 11
287.66752423096841
 21
528.23656604649909
 31
0.0
  0
LINE
  5
10E
100
AcDbEntity
  8
一般
370
              15
  6
Continuous
 62
               7
100
AcDbLine
 10
608.65775408296759
 20
630.0
 30
0.0
 11
534.64798393496676
 21
528.23656604649909
 31
0.0
  0
LINE
  5
10F
100
AcDbEntity
  8
一般
370
              15
  6
Continuous
 62
               7
100
AcDbLine
 10
213.65775408296759
 20
630.0
 30
0.0
 11
608.65775408296759
 21
630.0
 31
0.0
  0
ARC
  5
110
100
AcDbEntity
  8
一般
370
              15
  6
Continuous
 62
               7
100
AcDbCircle
 10
303.84224591703241
 20
540.0
 30
0.0
 40
20.000000000000178
100
AcDbArc
 50
216.02737338510317
 51
269.99999999999932
  0
ARC
  5
111
100
AcDbEntity
  8
一般
370
              15
  6
Continuous
 62
               7
100
AcDbCircle
 10
518.47326224890298
 20
540.0
 30
0.0
 40
20.0
100
AcDbArc
 50
270.0
 51
323.97262661489651
  0
LINE
  5
112
100
AcDbEntity
  8
一般
370
              15
  6
Continuous
 62
               7
100
AcDbLine
 10
1457.0952540829683
 20
630.0
 30
0.0
 11
1447.0952540829683
 21
630.0
 31
0.0
  0
LINE
  5
113
100
AcDbEntity
  8
一般
370
              15
  6
Continuous
 62
               7
100
AcDbLine
 10
1457.0952540829683
 20
630.0
 30
0.0
 11
1447.0952540829683
 21
630.0
 31
0.0
  0
LINE
  5
114
100
AcDbEntity
  8
一般
370
              15
  6
Continuous
 62
               7
100
AcDbLine
 10
1042.0952540829683
 20
630.0
 30
0.0
 11
1052.0952540829683
 21
630.0
 31
0.0
  0
LINE
  5
115
100
AcDbEntity
  8
一般
370
              15
  6
Continuous
 62
               7
100
AcDbLine
 10
1124.5952540829683
 20
500.0
 30
0.0
 11
1374.5952540829683
 21
500.0
 31
0.0
  0
LINE
  5
116
100
AcDbEntity
  8
一般
370
              15
  6
Continuous
 62
               7
100
AcDbLine
 10
1042.0952540829683
 20
630.0
 30
0.0
 11
1124.5952540829683
 21
500.0
 31
0.0
  0
LINE
  5
117
100
AcDbEntity
  8
一般
370
              15
  6
Continuous
 62
               7
100
AcDbLine
 10
1457.0952540829683
 20
630.0
 30
0.0
 11
1374.5952540829683
 21
500.0
 31
0.0
  0
LINE
  5
118
100
AcDbEntity
  8
一般
370
              15
  6
Continuous
 62
               7
100
AcDbLine
 10
1142.2797459170329
 20
520.0
 30
0.0
 11
1214.5952540829683
 21
520.0
 31
0.0
  0
LINE
  5
119
100
AcDbEntity
  8
一般
370
              15
  6
Continuous
 62
               7
100
AcDbLine
 10
1284.5952540829683
 20
520.0
 30
0.0
 11
1356.9107622489037
 21
520.0
 31
0.0
  0
LINE
  5
11A
100
AcDbEntity
  8
一般
370
              15
  6
Continuous
 62
               7
100
AcDbLine
 10
1214.5952540829683
 20
520.0
 30
0.0
 11
1284.5952540829683
 21
520.0
 31
0.0
  0
LINE
  5
11B
100
AcDbEntity
  8
一般
370
              15
  6
Continuous
 62
               7
100
AcDbLine
 10
1052.0952540829683
 20
630.0
 30
0.0
 11
1126.1050242309691
 21
528.23656604649909
 31
0.0
  0
LINE
  5
11C
100
AcDbEntity
  8
一般
370
              15
  6
Continuous
 62
               7
100
AcDbLine
 10
1447.0952540829683
 20
630.0
 30
0.0
 11
1373.0854839349674
 21
528.23656604649909
 31
0.0
  0
LINE
  5
11D
100
AcDbEntity
  8
一般
370
              15
  6
Continuous
 62
               7
100
AcDbLine
 10
1052.0952540829683
 20
630.0
 30
0.0
 11
1447.0952540829683
 21
630.0
 31
0.0
  0
ARC
  5
11E
100
AcDbEntity
  8
一般
370
              15
  6
Continuous
 62
               7
100
AcDbCircle
 10
1142.2797459170331
 20
540.0
 30
0.0
 40
20.000000000000178
100
AcDbArc
 50
216.02737338510317
 51
269.99999999999932
  0
ARC
  5
11F
100
AcDbEntity
  8
一般
370
              15
  6
Continuous
 62
               7
100
AcDbCircle
 10
1356.9107622489037
 20
540.0
 30
0.0
 40
20.0
100
AcDbArc
 50
270.0
 51
323.97262661489651
  0
DIMENSION
  5
120
100
AcDbEntity
  8
寸法
370
               5
  6
Continuous
 62
               7
100
AcDbDimension
  2
*D4
 10
203.65775408296759
 20
1668.3126289866427
 30
0.0
 11
411.15775408296759
 21
1668.3126289866427
 31
0.0
 71
               5
 72
               1
 41
1.0
 42
0.0
  3
kasumatamu
100
AcDbAlignedDimension
 13
618.65775408296759
 23
1598.3126289866427
 33
0.0
 14
203.65775408296759
 24
1598.3126289866427
 34
0.0
100
AcDbRotatedDimension
1001
ACAD
1000
DSTYLE
1002
{
1070
             271
1070
               2
1070
             279
1070
               2
1070
             340
1005
30
1070
             140
1040
21.717881944444446
1070
             147
1040
5.0
1002
}
  0
DIMENSION
  5
121
100
AcDbEntity
  8
寸法
370
               5
  6
Continuous
 62
               7
100
AcDbDimension
  2
*D5
 10
729.59525408296827
 20
1558.3126289866427
 30
0.0
 11
729.59525408296827
 21
1350.8126289866427
 31
0.0
 71
               5
 72
               1
 41
1.0
 42
0.0
  3
kasumatamu
100
AcDbAlignedDimension
 13
659.59525408296827
 23
1143.3126289866427
 33
0.0
 14
659.59525408296827
 24
1558.3126289866427
 34
0.0
 50
90.0
100
AcDbRotatedDimension
1001
ACAD
1000
DSTYLE
1002
{
1070
             271
1070
               2
1070
             279
1070
               2
1070
             340
1005
30
1070
             140
1040
21.717881944444446
1070
             147
1040
5.0
1002
}
  0
DIMENSION
  5
122
100
AcDbEntity
  8
寸法
370
               5
  6
Continuous
 62
               7
100
AcDbDimension
  2
*D6
 10
779.59525408296827
 20
630.0
 30
0.0
 11
779.59525408296827
 21
565.0
 31
0.0
 71
               5
 72
               1
 41
1.0
 42
0.0
  3
kasumatamu
100
AcDbAlignedDimension
 13
659.59525408296827
 23
500.0
 33
0.0
 14
659.59525408296827
 24
630.0
 34
0.0
 50
90.0
100
AcDbRotatedDimension
1001
ACAD
1000
DSTYLE
1002
{
1070
             271
1070
               2
1070
             279
1070
               2
1070
             340
1005
30
1070
             140
1040
21.717881944444446
1070
             147
1040
5.0
1002
}
  0
INSERT
  5
123
100
AcDbEntity
  8
一般
 62
               7
100
AcDbBlockReference
  2
グループ-1
 10
1450.0
 20
1020.0
 30
0.0
  0
DIMENSION
  5
124
100
AcDbEntity
  8
寸法
370
               5
  6
Continuous
 62
               7
100
AcDbDimension
  2
*D8
 10
393.48008455329932
 20
1368.490298516311
 30
0.0
 11
411.15775408296759
 21
1350.8126289866429
 31
0.0
 70
               3
 71
               5
 72
               1
 41
1.0
 42
0.0
  1
 
  3
kasumatamu
100
AcDbDiametricDimension
 15
428.83542361263562
 25
1333.1349594569749
 35
0.0
 40
0.0
1001
ACAD
1000
DSTYLE
1002
{
1070
             271
1070
               2
1070
             289
1070
               0
1070
             342
1005
46
1070
             340
1005
30
1070
             140
1040
21.717881944444446
1070
              73
1070
               1
1070
              74
1070
               1
1070
              75
1070
               1
1070
              76
1070
               1
1070
             147
1040
5.0
1002
}
  0
DIMENSION
  5
125
100
AcDbEntity
  8
寸法
370
               5
  6
Continuous
 62
               7
100
AcDbDimension
  2
*D9
 10
281.15775408296759
 20
439.26420468028289
 30
0.0
 11
409.59525408296827
 21
444.26420468028289
 31
0.0
 70
             128
 71
               5
 72
               1
 41
1.0
 42
0.0
  3
kasumatamu
100
AcDbAlignedDimension
 13
541.15775408296759
 23
493.28023976416159
 33
0.0
 14
281.15775408296759
 24
493.28023976416159
 34
0.0
100
AcDbRotatedDimension
1001
ACAD
1000
DSTYLE
1002
{
1070
             271
1070
               2
1070
             279
1070
               2
1070
             340
1005
30
1070
             140
1040
21.717881944444446
1070
             147
1040
5.0
1002
}
  0
LINE
  5
126
100
AcDbEntity
  8
一般
370
              15
  6
Continuous
 62
               7
100
AcDbLine
 10
386.15775408296759
 20
500.0
 30
0.0
 11
386.15775408296759
 21
510.0
 31
0.0
  0
LINE
  5
127
100
AcDbEntity
  8
一般
370
              15
  6
Continuous
 62
               7
100
AcDbLine
 10
436.15775408296759
 20
500.0
 30
0.0
 11
436.15775408296759
 21
510.0
 31
0.0
  0
ARC
  5
128
100
AcDbEntity
  8
一般
370
              15
  6
Continuous
 62
               7
100
AcDbCircle
 10
376.15775408296759
 20
510.0
 30
0.0
 40
10.0
100
AcDbArc
 50
0.0
 51
90.0
  0
ARC
  5
129
100
AcDbEntity
  8
一般
370
              15
  6
Continuous
 62
               7
100
AcDbCircle
 10
446.15775408296759
 20
510.0
 30
0.0
 40
10.0
100
AcDbArc
 50
90.0
 51
180.0
  0
LINE
  5
12A
100
AcDbEntity
  8
一般
370
              15
  6
Continuous
 62
               7
100
AcDbLine
 10
1224.5952540829683
 20
500.0
 30
0.0
 11
1224.5952540829683
 21
510.0
 31
0.0
  0
LINE
  5
12B
100
AcDbEntity
  8
一般
370
              15
  6
Continuous
 62
               7
100
AcDbLine
 10
1274.5952540829683
 20
500.0
 30
0.0
 11
1274.5952540829683
 21
510.0
 31
0.0
  0
ARC
  5
12C
100
AcDbEntity
  8
一般
370
              15
  6
Continuous
 62
               7
100
AcDbCircle
 10
1214.5952540829683
 20
510.0
 30
0.0
 40
10.0
100
AcDbArc
 50
0.0
 51
90.0
  0
ARC
  5
12D
100
AcDbEntity
  8
一般
370
              15
  6
Continuous
 62
               7
100
AcDbCircle
 10
1284.5952540829683
 20
510.0
 30
0.0
 40
10.0
100
AcDbArc
 50
90.0
 51
180.0
  0
LINE
  5
12E
100
AcDbEntity
  8
一般
370
               5
  6
STYLE_06
 62
               7
100
AcDbLine
 10
376.15775408296759
 20
1350.8126289866427
 30
0.0
 11
446.15775408296759
 21
1350.8126289866427
 31
0.0
  0
DIMENSION
  5
12F
100
AcDbEntity
  8
寸法
370
               5
  6
Continuous
 62
               7
100
AcDbDimension
  2
*D10
 10
293.65775408296759
 20
1420.0
 30
0.0
 11
411.15775408296759
 21
1420.0
 31
0.0
 71
               5
 72
               1
 41
1.0
 42
0.0
  3
kasumatamu
100
AcDbAlignedDimension
 13
528.65775408296759
 23
1260.0
 33
0.0
 14
293.65775408296759
 24
1260.0
 34
0.0
100
AcDbRotatedDimension
1001
ACAD
1000
DSTYLE
1002
{
1070
             271
1070
               2
1070
             279
1070
               2
1070
             340
1005
30
1070
             140
1040
21.717881944444446
1070
             147
1040
5.0
1002
}
  0
DIMENSION
  5
130
100
AcDbEntity
  8
寸法
370
               5
  6
Continuous
 62
               7
100
AcDbDimension
  2
*D11
 10
729.59525408296827
 20
630.0
 30
0.0
 11
729.59525408296827
 21
575.0
 31
0.0
 71
               5
 72
               1
 41
1.0
 42
0.0
  3
kasumatamu
100
AcDbAlignedDimension
 13
659.59525408296827
 23
520.0
 33
0.0
 14
659.59525408296827
 24
630.0
 34
0.0
 50
90.0
100
AcDbRotatedDimension
1001
ACAD
1000
DSTYLE
1002
{
1070
             271
1070
               2
1070
             279
1070
               2
1070
             340
1005
30
1070
             140
1040
21.717881944444446
1070
             147
1040
5.0
1002
}
  0
MTEXT
  5
131
100
AcDbEntity
  8
一般
 62
             250
100
AcDbMText
 10
1800.0
 20
1598.6134374999999
 30
0.0
 40
24.694444444444446
 41
180.0
 71
               1
 72
               1
  1
{\H0.8795x;\l品名　　　：}
 73
               1
 44
0.7828267384257843
  0
MTEXT
  5
132
100
AcDbEntity
  8
一般
 62
             250
100
AcDbMText
 10
1800.0
 20
1475.6689930555556
 30
0.0
 40
24.694444444444446
 41
180.0
 71
               1
 72
               1
  1
{\H0.8795x;\l素材　　　：}
 73
               1
 44
0.7828267384257843
  0
MTEXT
  5
133
100
AcDbEntity
  8
一般
 62
             250
100
AcDbMText
 10
1800.0
 20
1435.6689930555556
 30
0.0
 40
24.694444444444446
 41
180.0
 71
               1
 72
               1
  1
{\H0.8795x;\l色　　　　：}
 73
               1
 44
0.7828267384257843
  0
MTEXT
  5
134
100
AcDbEntity
  8
一般
 62
             250
100
AcDbMText
 10
1800.0
 20
1395.6689930555556
 30
0.0
 40
24.694444444444446
 41
180.0
 71
               1
 72
               1
  1
{\H0.8795x;\l設置方法　：}
 73
               1
 44
0.7828267384257843
  0
MTEXT
  5
135
100
AcDbEntity
  8
一般
 62
             250
100
AcDbMText
 10
1800.0
 20
1558.6134374999999
 30
0.0
 40
24.694444444444446
 41
180.0
 71
               1
 72
               1
  1
{\H0.8795x;\l重量　　　：}
 73
               1
 44
0.7828267384257843
  0
MTEXT
  5
136
100
AcDbEntity
  8
一般
 62
             250
100
AcDbMText
 10
1990.0
 20
1598.6134374999999
 30
0.0
 40
21.717881944444446
 41
710.0
 71
               1
 72
               1
  1
カウンタートップ洗面/手洗器(オーバーフロー無)
  7
ＭＳ ゴシック
 73
               1
 44
0.7828267384257843
  0
MTEXT
  5
137
100
AcDbEntity
  8
一般
 62
             250
100
AcDbMText
 10
1990.0
 20
1558.6134374999999
 30
0.0
 40
24.694444444444446
 41
180.0
 71
               1
 72
               1
  1
{\H0.8795x;\l10KG}
 73
               1
 44
0.7828267384257843
  0
MTEXT
  5
138
100
AcDbEntity
  8
一般
 62
             250
100
AcDbMText
 10
1990.0
 20
1475.6689930555556
 30
0.0
 40
24.694444444444446
 41
180.0
 71
               1
 72
               1
  1
{\H0.8795x;\l陶器}
 73
               1
 44
0.7828267384257843
  0
MTEXT
  5
139
100
AcDbEntity
  8
一般
 62
             250
100
AcDbMText
 10
1990.0
 20
1435.6689930555556
 30
0.0
 40
24.694444444444446
 41
180.0
 71
               1
 72
               1
  1
{\H0.8795x;\lホワイト}
 73
               1
 44
0.7828267384257843
  0
MTEXT
  5
13A
100
AcDbEntity
  8
一般
 62
             250
100
AcDbMText
 10
1990.0
 20
1395.6689930555556
 30
0.0
 40
21.717881944444446
 41
410.0
 71
               1
 72
               1
  1
カウンター置\Pシリコン(クリアー)接着　　　
  7
ＭＳ ゴシック
 73
               1
 44
0.7828267384257843
  0
ENDSEC
  0
SECTION
  2
OBJECTS
  0
DICTIONARY
  5
19
100
AcDbDictionary
280
               0
281
               1
  3
ACAD_GROUP
350
1A
  3
ACAD_MLINESTYLE
350
1B
  3
ACAD_LAYOUT
350
1E
  3
ACAD_PLOTSETTINGS
350
22
  3
ACAD_PLOTSTYLENAME
350
1F
  3
ACAD_WIPEOUT_VARS
350
23
  0
DICTIONARY
  5
1A
102
{ACAD_REACTORS
330
19
102
}
100
AcDbDictionary
280
               0
281
               1
  0
DICTIONARY
  5
1B
102
{ACAD_REACTORS
330
19
102
}
100
AcDbDictionary
280
               0
281
               1
  3
Standard
350
1C
  0
MLINESTYLE
  5
1C
102
{ACAD_REACTORS
330
1B
102
}
100
AcDbMlineStyle
  2
Standard
 70
               0
  3

 62
               0
 51
90.0
 52
90.0
 71
               2
 49
0.5
 62
             256
  6
ByLayer
 49
-0.5
 62
             256
  6
ByLayer
  0
ACDBDICTIONARYWDFLT
  5
1F
102
{ACAD_REACTORS
330
19
102
}
100
AcDbDictionary
281
               1
  3
Normal
350
1D
100
AcDbDictionaryWithDefault
340
1D
  0
ACDBPLACEHOLDER
  5
1D
102
{ACAD_REACTORS
330
1F
102
}
  0
LAYOUT
  5
20
102
{ACAD_REACTORS
330
1E
102
}
100
AcDbPlotSettings
  1

  2

  4

  6

 40
0.0
 41
0.0
 42
0.0
 43
0.0
 44
0.0
 45
0.0
 46
0.0
 47
0.0
 48
0.0
 49
0.0
140
0.0
141
0.0
142
1.0
143
1.0
 70
            1024
 72
               0
 73
               0
 74
               0
  7

 75
               0
147
1.0
148
0.0
149
0.0
100
AcDbLayout
  1
Model
 70
               0
 71
               0
 10
0.0
 20
0.0
 11
0.0
 21
0.0
 12
0.0
 22
0.0
 32
0.0
 14
0.0
 24
0.0
 34
0.0
 15
0.0
 25
0.0
 35
0.0
146
0.0
 13
0.0
 23
0.0
 33
0.0
 16
0.0
 26
0.0
 36
0.0
 17
0.0
 27
0.0
 37
0.0
 76
               0
330
A
331
0
345
0
346
0
  0
LAYOUT
  5
21
102
{ACAD_REACTORS
330
1E
102
}
100
AcDbPlotSettings
  1

  2

  4

  6

 40
0.0
 41
0.0
 42
0.0
 43
0.0
 44
0.0
 45
0.0
 46
0.0
 47
0.0
 48
0.0
 49
0.0
140
0.0
141
0.0
142
1.0
143
1.0
 70
               0
 72
               0
 73
               0
 74
               0
  7

 75
               0
147
1.0
148
0.0
149
0.0
100
AcDbLayout
  1
Layout1
 70
               0
 71
               0
 10
0.0
 20
0.0
 11
0.0
 21
0.0
 12
0.0
 22
0.0
 32
0.0
 14
0.0
 24
0.0
 34
0.0
 15
0.0
 25
0.0
 35
0.0
146
0.0
 13
0.0
 23
0.0
 33
0.0
 16
0.0
 26
0.0
 36
0.0
 17
0.0
 27
0.0
 37
0.0
 76
               0
330
B
331
0
345
0
346
0
  0
DICTIONARY
  5
1E
102
{ACAD_REACTORS
330
19
102
}
100
AcDbDictionary
280
               0
281
               1
  3
Layout1
350
21
  3
Model
350
20
  0
DICTIONARY
  5
22
102
{ACAD_REACTORS
330
19
102
}
100
AcDbDictionary
280
               0
281
               1
  0
WIPEOUTVARIABLES
  5
23
100
AcDbWipeoutVariables
 70
               0
  0
ENDSEC
  0
EOF
